img image001 image001 image001 image001 image001 image001 image001 image001 image001 image001 image001 image001 image001 image001 image001

Planets Sun Sun Sun
Статистика раздачи
Автор: Nickolas3434 | Размер: 1.39 ГБ | Добавлен: 28 июл 2014
Раздают: 241    Качают: 19
Скачать торрент
Скачать торрент
Описание торрента

СообщениеДобавлено: 28 июл 2014 

Спираль

Страна: Россия
Год выпуска: 2014
Жанр: боевик
Продолжительность: 01:37:40

Режиссер: Андрей Волгин

Сценарий:Константин Глушков
Продюсер:Елена Ковалева, Алексей Гришин, Рената Пиотровски
Оператор: Игорь Бондарев, Вячеслав Лисневский
Композитор:Александр Крюков
Монтаж:Алексей Гришин

Актеры: Константин Крюков, Анатолий Руденко, Вениамин Смехов, Александр Яцко, Никита Высоцкий, Кларисса Барская, Константин Глушков, Владимир Стержаков, Марина Куделинская, Рената Пиотровски

Описание фильма: Главный герой истории — Алексей, талантливый программист из Новосибирска, приезжает в Москву и становится членом закрытого полулегального элитного клуба под названием «Спираль». Как новичку ему крупно везет, и он выигрывает одну экстремальную игру клуба за другой, получая сумасшедшие гонорары. В него влюбляется такая девушка, о какой он даже не мог мечтать.

Но в одночасье красивый мир вокруг него рушится, и он влипает в крупные неприятности — его обвиняют в ограблении банка, любимая девушка не верит в его невиновность, и в довершении всего его пытаются убить…



Файл
Качество видео: BDRip-AVC Исходник: Blu-ray
Формат: MKV Видео кодек: MPEG-4 AVC Аудио кодек: AC3
Видео: AVC, 1024x432 (2.35:1) at 25.000 fps, AVC at 1619 kbps avg, 0.146 bit/pixel
Аудио: Russian: 48 kHz; AC3 5.1; 384.00 kbps avg

Автор рипа:

Релиз от:

АНОНСЫ МОИХ РАЗДАЧ!





Spiral.2014.BDRip.BluRay.x264-LEONARDO_[scarabey.org].mkv
Format : Matroska
Format version : Version 2
File size : 1.39 GiB
Duration : 1h 37mn
Overall bit rate : 2 044 Kbps
Movie name : -=LEONARDO=-
Encoded date : UTC 2014-07-26 12:58:20
Writing application : mkvmerge v5.0.1 ('Es ist Sommer') built on Oct 23 2011 00:46:40
Writing library : libebml v1.2.2 + libmatroska v1.3.0
Attachment : Yes

Video
ID : 1
Format : AVC
Format/Info : Advanced Video Codec
Format profile : High@L4.1
Format settings, CABAC : Yes
Format settings, ReFrames : 9 frames
Codec ID : V_MPEG4/ISO/AVC
Duration : 1h 37mn
Bit rate : 1 619 Kbps
Width : 1 024 pixels
Height : 432 pixels
Display aspect ratio : 2.35:1
Frame rate : 25.000 fps
Color space : YUV
Chroma subsampling : 4:2:0
Bit depth : 8 bits
Scan type : Progressive
Bits/(Pixel*Frame) : 0.146
Stream size : 1.10 GiB (79%)
Writing library : x264 core 125 r2208 d9d2288
Encoding settings : cabac=1 / ref=9 / deblock=1:-1:-1 / analyse=0x3:0x133 / me=umh / subme=11 / psy=1 / psy_rd=1.00:0.00 / mixed_ref=1 / me_range=32 / chroma_me=1 / trellis=2 / 8x8dct=1 / cqm=0 / deadzone=21,11 / fast_pskip=0 / chroma_qp_offset=-2 / threads=12 / lookahead_threads=2 / sliced_threads=0 / nr=0 / decimate=1 / interlaced=0 / bluray_compat=0 / constrained_intra=0 / bframes=8 / b_pyramid=2 / b_adapt=2 / b_bias=0 / direct=1 / weightb=1 / open_gop=0 / weightp=2 / keyint=250 / keyint_min=25 / scenecut=40 / intra_refresh=0 / rc=crf / mbtree=0 / crf=20.0 / qcomp=0.60 / qpmin=0 / qpmax=69 / qpstep=4 / ip_ratio=1.10 / pb_ratio=1.10 / aq=1:1.00
Language : English
Default : Yes
Forced : No

Audio
ID : 2
Format : AC-3
Format/Info : Audio Coding 3
Mode extension : CM (complete main)
Codec ID : A_AC3
Duration : 1h 37mn
Bit rate mode : Constant
Bit rate : 384 Kbps
Channel(s) : 6 channels
Channel positions : Front: L C R, Side: L R, LFE
Sampling rate : 48.0 KHz
Bit depth : 16 bits
Compression mode : Lossy
Stream size : 268 MiB (19%)
Language : Russian
Default : Yes
Forced : Yes



   Похожие торренты   Торрент   Размер 
В этой теме нет новых непрочитанных сообщений. Спираль (2014) BDRip 720p от Leonardo and Scarabey

291 | 61

2.96 ГБ

В этой теме нет новых непрочитанных сообщений. Свалка / Trash (2014) BDRip 720p HEVC (x265) от Leonardo and Scarabey от Leonardo and Scarabey | Лицензия

484 | 52

1.46 ГБ

В этой теме нет новых непрочитанных сообщений. Рио 2 / Rio 2 (2014) BDRip-AVC от Leonardo and Scarabey | Лицензия

961 | 115

2.18 ГБ

В этой теме нет новых непрочитанных сообщений. Василиса (2014) BDRip-AVC от Leonardo and Scarabey

102 | 9

2.56 ГБ

В этой теме нет новых непрочитанных сообщений. Сын (2014) BDRip 720p от Leonardo and Scarabey

1480 | 166

1.99 ГБ

В этой теме нет новых непрочитанных сообщений. Ной / Noah (2014) BDRip-AVC от Leonardo and Scarabey | Лицензия

310 | 64

2.36 ГБ

В этой теме нет новых непрочитанных сообщений. Рио 2 / Rio 2 (2014) BDRip 720p от Leonardo and Scarabey | Лицензия

813 | 206

3.45 ГБ




Вы не можете начинать темы
Вы не можете отвечать на сообщения
Вы не можете редактировать свои сообщения
Вы не можете удалять свои сообщения
Вы не можете добавлять вложения

Перейти:  
Для Мосгорсуда, Роскомнадзора и рекламодателей: mosgorsud-torrent[собачка]yandex.ru
 Вход
ppkBB3cker v.2 © 2008-2014 @ PPK
[ Time : 0.022s | 15 Queries | GZIP : Off ]

Торрент трекер RUTOR.IN, Не можете зайти на rutor.org? Какой новый адрес рутор? Какое зеркало рутор? Не работает rutor.org и зеркала? Тогда наш торрент специально для вас. Rutor.in неофициальное зеркало rutor. В случае если у Вас заблокирован rutor или вдруг Вы не можете на него зайти, то Вы без труда сможете скачать бесплатно и без рекламы последние новинки кино, игр, сериалов и прочего у нас, на Rutor.in. Не нужно использовать прокси, чтобы зайти на рутор, достаточно воспользоваться нашим ресурсом. Все новые фильмы, игры, сериалы, книги и музыка за 2013 и 2014 годы через торрент бесплатно. Скачивайте фильмы в хорошем качестве, игры для пк, xbox, playstation без регистрации. У нас вы найдете новые Зарубежные сериалы и Русские сериалы 2013, 2014, 2015 годов. Оставайтесь с нами, качайте любимые фильмы, игры, сериалы, книги и музыку.