img image001 image001 image001 image001 image001 image001 image001 image001 image001 image001 image001 image001 image001 image001 image001

Planets Sun Sun Sun
Статистика раздачи
Автор: Nickolas3434 | Размер: 2.98 ГБ | Добавлен: 28 июл 2014
Раздают: 401    Качают: 37
Скачать торрент
Скачать торрент
Описание торрента

СообщениеДобавлено: 28 июл 2014 

Скорый «Москва-Россия»

Страна: Россия
Год выпуска: 2014
Жанр: комедия, приключения
Продолжительность: 01:24:40

Режиссер: Игорь Волошин

Сценарий:Денис Родимин, Сергей Светлаков, Игорь Волошин
Продюсер:Александр Орлов, Сергей Светлаков, Игорь Волошин
Оператор: Дмитрий Яшонков
Художник:Ирина Гражданкина
Монтаж:Александр Андрющенко

Актеры: Сергей Светлаков, Маргарита Левиева, Павел Деревянко, Майкл Мэдсен, Ингеборга Дапкунайте, Спартак Кондауров, Максим Голополосов, Иван Ургант, Виктор Проскурин, Ольга Симонова

Описание фильма: Это история про парня, который душу готов продать, лишь бы набрать миллион просмотров для своего видео на YouTube. На пути к своей цели он оказывается в скором поезде «Москва — Владивосток», где сталкивается с американской актрисой, страдающей аэрофобией. В пути незнакомцев ожидают такие приключения, что они отстают от поезда, который пытаются догнать, продвигаясь по нашей непредсказуемой и сказочной России-матушке… Ведь каждому из них нужно оказаться во Владивостоке ровно через 7 дней — по причинам, которые они тщательно скрывают друг от друга.



Файл
Качество видео: BDRip 720p Исходник: Blu-ray
Формат: MKV Видео кодек: MPEG-4 AVC Аудио кодек: AC3
Видео: AVC, 1280x550 (2.35:1) at 25.000 fps, AVC at 4494 kbps avg, 0.255 bit/pixel
Аудио: Russian: 48 kHz; AC3 5.1; 448.00 kbps avg

Автор рипа:

Релиз от:

АНОНСЫ МОИХ РАЗДАЧ!







Moskva - Russia.2014.720p.BluRay.x264-LEONARDO_[scarabey.org].mkv
Format : Matroska
Format version : Version 2
File size : 2.98 GiB
Duration : 1h 24mn
Overall bit rate : 5 042 Kbps
Movie name : -=LEONARDO=-
Encoded date : UTC 2014-07-26 13:32:56
Writing application : mkvmerge v5.0.1 ('Es ist Sommer') built on Oct 23 2011 00:46:40
Writing library : libebml v1.2.2 + libmatroska v1.3.0
Attachment : Yes

Video
ID : 1
Format : AVC
Format/Info : Advanced Video Codec
Format profile : High@L4.1
Format settings, CABAC : Yes
Format settings, ReFrames : 9 frames
Codec ID : V_MPEG4/ISO/AVC
Duration : 1h 24mn
Bit rate : 4 494 Kbps
Width : 1 280 pixels
Height : 550 pixels
Display aspect ratio : 2.35:1
Frame rate : 25.000 fps
Color space : YUV
Chroma subsampling : 4:2:0
Bit depth : 8 bits
Scan type : Progressive
Bits/(Pixel*Frame) : 0.255
Stream size : 2.66 GiB (89%)
Writing library : x264 core 125 r2208 d9d2288
Encoding settings : cabac=1 / ref=9 / deblock=1:-1:-1 / analyse=0x3:0x133 / me=umh / subme=11 / psy=1 / psy_rd=1.00:0.00 / mixed_ref=1 / me_range=32 / chroma_me=1 / trellis=2 / 8x8dct=1 / cqm=0 / deadzone=21,11 / fast_pskip=0 / chroma_qp_offset=-2 / threads=12 / lookahead_threads=2 / sliced_threads=0 / nr=0 / decimate=1 / interlaced=0 / bluray_compat=0 / constrained_intra=0 / bframes=8 / b_pyramid=2 / b_adapt=2 / b_bias=0 / direct=1 / weightb=1 / open_gop=0 / weightp=2 / keyint=250 / keyint_min=25 / scenecut=40 / intra_refresh=0 / rc=crf / mbtree=0 / crf=18.0 / qcomp=0.60 / qpmin=0 / qpmax=69 / qpstep=4 / ip_ratio=1.10 / pb_ratio=1.10 / aq=1:1.00
Language : English
Default : Yes
Forced : No

Audio
ID : 2
Format : AC-3
Format/Info : Audio Coding 3
Mode extension : CM (complete main)
Codec ID : A_AC3
Duration : 1h 24mn
Bit rate mode : Constant
Bit rate : 448 Kbps
Channel(s) : 6 channels
Channel positions : Front: L C R, Side: L R, LFE
Sampling rate : 48.0 KHz
Bit depth : 16 bits
Compression mode : Lossy
Stream size : 271 MiB (9%)
Language : Russian
Default : Yes
Forced : Yes



   Похожие торренты   Торрент   Размер 
В этой теме нет новых непрочитанных сообщений. Скорый «Москва-Россия» (2014) BDRip-AVC от Leonardo and Scarabey

322 | 25

1.78 ГБ

В этой теме нет новых непрочитанных сообщений. Скорый Москва-Россия (2014) BDRip 720p | Лицензия

1462 | 233

4.17 ГБ

В этой теме нет новых непрочитанных сообщений. Скорый «Москва-Россия» (2014) BDRip 720p | KinoGadget | iPad

386 | 34

1.76 ГБ

В этой теме нет новых непрочитанных сообщений. Скорый «Москва-Россия» (2014) BDRip от ivandubskoj

1233 | 107

1.46 ГБ

В этой теме нет новых непрочитанных сообщений. Скорый Москва-Россия (2014) BDRip 1080p | Лицензия

393 | 32

7.53 ГБ

В этой теме нет новых непрочитанных сообщений. Скорый «Москва-Россия» (2014) BDRip-AVC от HELLYWOOD | Лицензия

979 | 44

1.46 ГБ

В этой теме нет новых непрочитанных сообщений. Скорый «Москва-Россия» (2014) BDRip от HQCLUB | Лицензия

6971 | 361

1.45 ГБ




Вы не можете начинать темы
Вы не можете отвечать на сообщения
Вы не можете редактировать свои сообщения
Вы не можете удалять свои сообщения
Вы не можете добавлять вложения

Перейти:  
Для Мосгорсуда, Роскомнадзора и рекламодателей: mosgorsud-torrent[собачка]yandex.ru
 Вход
ppkBB3cker v.2 © 2008-2014 @ PPK
[ Time : 0.065s | 16 Queries | GZIP : Off ]

cron