img image001 image001 image001 image001 image001 image001 image001 image001 image001 image001 image001 image001 image001 image001 image001

Planets Sun Sun Sun
Статистика раздачи
Автор: Nickolas3434 | Размер: 2.82 ГБ | Добавлен: 28 июл 2014
Раздают: 587    Качают: 19
Скачать торрент
Скачать торрент
Описание торрента

СообщениеДобавлено: 28 июл 2014 

Кухня в Париже

Страна: Россия
Год выпуска: 2014
Жанр: комедия
Продолжительность: 01:46:42

Режиссер: Дмитрий Дьяченко

Сценарий:Димитрий Ян, Василий Куценко, Павел Данилов
Продюсер:Вячеслав Муругов, Эдуард Илоян, Виталий Шляппо
Оператор: Сергей Дышук
Композитор:Иван Канаев, Антон Силаев, Алексей Массалитинов
Художник:Александр Ким, Григорий Пушкин, Виктор Никоненко
Монтаж:Николай Булыгин, Максим Полинский, Мария Лихачева

Актеры: Дмитрий Назаров, Марк Богатырев, Елена Подкаминская, Дмитрий Нагиев, Олег Табаков, Венсан Перес, Михаил Тарабукин, Сергей Лавыгин, Никита Тарасов, Виктор Хориняк

Описание фильма: Модный столичный ресторан «Клод Моне» процветает. Именно здесь, в родном заведении Вика и Максим хотят отпраздновать долгожданную свадьбу. Но планы меняются, когда в ресторане назначают переговоры Президентов России и Франции! Команда ресторана терпит фиаско и вынуждена отправиться в «изгнание» — в Париж. Там Шеф с Максом сталкиваются с опасными конкурентами: Шеф — с ближайшим родственником, а Максим — с красавцем Николя, который кружит Вике голову не хуже искристого шампанского! И это еще не все вызовы, которые бросает им «Город любви», ведь надо постараться спасти репутацию, накормить Президентов и преодолеть миллион препятствий à la française…



Файл
Качество видео: BDRip 720p Исходник: Blu-ray
Формат: MKV Видео кодек: MPEG-4 AVC Аудио кодек: AC3
Видео: AVC, 1280x534 (2.40:1) at 24.000 fps, AVC at 3327 kbps avg, 0.203 bit/pixel
Аудио: Russian: 48 kHz; AC3 5.1; 384.00 kbps avg

Автор рипа:

Релиз от:

АНОНСЫ МОИХ РАЗДАЧ!







Kukhnya v Parizhe.2014.720p.BluRay.x264-LEONARDO_[scarabey.org].mkv
Format : Matroska
Format version : Version 2
File size : 2.82 GiB
Duration : 1h 46mn
Overall bit rate : 3 786 Kbps
Movie name : -=LEONARDO=-
Encoded date : UTC 2014-07-26 14:22:49
Writing application : mkvmerge v5.0.1 ('Es ist Sommer') built on Oct 23 2011 00:46:40
Writing library : libebml v1.2.2 + libmatroska v1.3.0
Attachment : Yes

Video
ID : 1
Format : AVC
Format/Info : Advanced Video Codec
Format profile : High@L4.1
Format settings, CABAC : Yes
Format settings, ReFrames : 9 frames
Codec ID : V_MPEG4/ISO/AVC
Duration : 1h 46mn
Bit rate : 3 327 Kbps
Width : 1 280 pixels
Height : 534 pixels
Display aspect ratio : 2.40:1
Frame rate : 24.000 fps
Color space : YUV
Chroma subsampling : 4:2:0
Bit depth : 8 bits
Scan type : Progressive
Bits/(Pixel*Frame) : 0.203
Stream size : 2.48 GiB (88%)
Writing library : x264 core 125 r2208 d9d2288
Encoding settings : cabac=1 / ref=9 / deblock=1:-1:-1 / analyse=0x3:0x133 / me=umh / subme=11 / psy=1 / psy_rd=1.00:0.00 / mixed_ref=1 / me_range=32 / chroma_me=1 / trellis=2 / 8x8dct=1 / cqm=0 / deadzone=21,11 / fast_pskip=0 / chroma_qp_offset=-2 / threads=12 / lookahead_threads=2 / sliced_threads=0 / nr=0 / decimate=1 / interlaced=0 / bluray_compat=0 / constrained_intra=0 / bframes=8 / b_pyramid=2 / b_adapt=2 / b_bias=0 / direct=1 / weightb=1 / open_gop=0 / weightp=2 / keyint=250 / keyint_min=24 / scenecut=40 / intra_refresh=0 / rc=crf / mbtree=0 / crf=18.0 / qcomp=0.60 / qpmin=0 / qpmax=69 / qpstep=4 / ip_ratio=1.10 / pb_ratio=1.10 / aq=1:1.00
Language : English
Default : Yes
Forced : No

Audio
ID : 2
Format : AC-3
Format/Info : Audio Coding 3
Mode extension : CM (complete main)
Codec ID : A_AC3
Duration : 1h 46mn
Bit rate mode : Constant
Bit rate : 384 Kbps
Channel(s) : 6 channels
Channel positions : Front: L C R, Side: L R, LFE
Sampling rate : 48.0 KHz
Bit depth : 16 bits
Compression mode : Lossy
Stream size : 293 MiB (10%)
Language : Russian
Default : Yes
Forced : Yes



   Похожие торренты   Торрент   Размер 
В этой теме нет новых непрочитанных сообщений. Кухня в Париже (2014) BDRip-AVC от Leonardo and Scarabey

201 | 19

1.7 ГБ

В этой теме нет новых непрочитанных сообщений. Кухня в Париже (2014) BDRip 720p

2194 | 46

3.11 ГБ

В этой теме нет новых непрочитанных сообщений. Кухня в Париже (2014) BDRip 720p | Лицензия

276 | 88

4.4 ГБ

В этой теме нет новых непрочитанных сообщений. Кухня в Париже (2014) BDRip 720p | Лицензия

575 | 143

5.28 ГБ

В этой теме нет новых непрочитанных сообщений. Кухня в Париже (2014) WEB-DLRip от Scarabey

5222 | 440

1.45 ГБ

В этой теме нет новых непрочитанных сообщений. Кухня в Париже (2014) WEB-DLRip от Scarabey

343 | 27

746.04 МБ

В этой теме нет новых непрочитанных сообщений. Красотки в Париже / Sous les jupes des filles (2014) BDRip 720p от Leonardo and Scarabey | Лицензия

402 | 45

2.87 ГБ




Вы не можете начинать темы
Вы не можете отвечать на сообщения
Вы не можете редактировать свои сообщения
Вы не можете удалять свои сообщения
Вы не можете добавлять вложения

Перейти:  
Для Мосгорсуда, Роскомнадзора и рекламодателей: mosgorsud-torrent[собачка]yandex.ru
 Вход
ppkBB3cker v.2 © 2008-2014 @ PPK
[ Time : 0.055s | 18 Queries | GZIP : Off ]

Торрент трекер RUTOR.IN, Не можете зайти на rutor.org? Какой новый адрес рутор? Какое зеркало рутор? Не работает rutor.org и зеркала? Тогда наш торрент специально для вас. Rutor.in неофициальное зеркало rutor. В случае если у Вас заблокирован rutor или вдруг Вы не можете на него зайти, то Вы без труда сможете скачать бесплатно и без рекламы последние новинки кино, игр, сериалов и прочего у нас, на Rutor.in. Не нужно использовать прокси, чтобы зайти на рутор, достаточно воспользоваться нашим ресурсом. Все новые фильмы, игры, сериалы, книги и музыка за 2013 и 2014 годы через торрент бесплатно. Скачивайте фильмы в хорошем качестве, игры для пк, xbox, playstation без регистрации. У нас вы найдете новые Зарубежные сериалы и Русские сериалы 2013, 2014, 2015 годов. Оставайтесь с нами, качайте любимые фильмы, игры, сериалы, книги и музыку.