img image001 image001 image001 image001 image001 image001 image001 image001 image001 image001 image001 image001 image001 image001 image001

Planets Sun Sun Sun
Статистика раздачи
Автор: Nickolas3434 | Размер: 4.1 ГБ | Добавлен: 30 июл 2014
Раздают: 199    Качают: 30
Скачать торрент
Скачать торрент
Описание торрента

СообщениеДобавлено: 30 июл 2014 

Информация о фильме
Название: Поднятая целина
Год выхода: 1959-1961
Жанр: Драма, экранизация
Режиссер: Александр Иванов
Сценарий: Михаил Шолохов, Юрий Лукин, Федор Шахмагонов
В ролях: Андрей Абрикосов, Петр Чернов, Петр Глебов, Людмила Хитяева, Леонид Кмит, Евгений Матвеев, Долорес Столбова, Владимир Волчик, Михаил Васильев, Николай Юдин, Владислав Ковальков, Федор Шмаков, Людмила Волынская, Николай Крючков, Геннадий Нилов, Николай Крюков, Зоя Александрова, Игорь Дмитриев, Елена Тяпкина, Владимир Дорофеев, Виктор Чекмарев, Игорь Щепетнов, Евгений Лебедев, Анатолий Алексеев, Олег Ярошенко

О фильме:
По мотивам одноимённого романа Михаила Шолохова. Ленинградский рабочий Давыдов приезжает в казачий хутор Гремячий Лог с целью помочь донскому казачеству перейти к новым, коллективным формам хозяйства. Кулаки умело используют ошибки руководителя местной партийной организации Макара Нагульнова, восстанавливая против него бедняков. Давыдову удается организовать колхоз. Его метод убеждения явно расходится с принудительными мерами Нагульнова. Однако общая цель — после ряда драматических столкновений — приводит героев к примирению. Действие фильма происходит в тридцатых годах.



Страна: СССР
Студия: Ленфильм
Продолжительность: 01:29:35 + 01:35:24 + 01:40:32
Язык: Русский

Файл
Кодек: XviD
Качество: DVDRip
Видео: 688x512, ~1850 Кбит/с, 25.000 fps
Звук: AC3, 2 ch, 192 Кбит/с


General
Complete name : F:РипыПоднятая целина (3 серии). 1959-1961. XviD. DVDRip-Morgan73Поднятая целина (1 серия). 1959. XviD. DVDRip-Morgan73.avi
Format : AVI
Format/Info : Audio Video Interleave
File size : 1.37 GiB
Duration : 1h 29mn
Overall bit rate : 2 185 Kbps
Movie name : Поднятая целина (1 серия) 1959
Director : Rip by Morgan73
Genre : Драма, экранизация
Writing application : VirtualDubMod 1.5.10.2 (build 2540/release)
Original source form/Name : Художественный фильм
Comment : Релиз-группа MediaClub

Video
ID : 0
Format : MPEG-4 Visual
Format profile : Advanced Simple@L5
Format settings, BVOP : 2
Format settings, QPel : No
Format settings, GMC : No warppoints
Format settings, Matrix : Default (MPEG)
Codec ID : XVID
Codec ID/Hint : XviD
Duration : 1h 29mn
Bit rate : 1 983 Kbps
Width : 688 pixels
Height : 512 pixels
Display aspect ratio : 4:3
Frame rate : 25.000 fps
Color space : YUV
Chroma subsampling : 4:2:0
Bit depth : 8 bits
Scan type : Progressive
Compression mode : Lossy
Bits/(Pixel*Frame) : 0.225
Stream size : 1.24 GiB (91%)
Writing library : XviD 1.2.1 (UTC 2008-12-04)

Audio
ID : 1
Format : AC-3
Format/Info : Audio Coding 3
Mode extension : CM (complete main)
Format settings, Endianness : Big
Codec ID : 2000
Duration : 1h 29mn
Bit rate mode : Constant
Bit rate : 192 Kbps
Channel(s) : 2 channels
Channel positions : Front: L R
Sampling rate : 48.0 KHz
Bit depth : 16 bits
Compression mode : Lossy
Stream size : 123 MiB (9%)
Alignment : Split accross interleaves
Interleave, duration : 40 ms (1.00 video frame)
Interleave, preload duration : 500 ms
____________________________________________________________

General
Complete name : F:РипыПоднятая целина (3 серии). 1959-1961. XviD. DVDRip-Morgan73Поднятая целина (2 серия). 1959. XviD. DVDRip-Morgan73.avi
Format : AVI
Format/Info : Audio Video Interleave
File size : 1.37 GiB
Duration : 1h 35mn
Overall bit rate : 2 052 Kbps
Movie name : Поднятая целина (2 серия) 1959
Director : Rip by Morgan73
Genre : Драма, экранизация
Writing application : VirtualDubMod 1.5.10.2 (build 2540/release)
Original source form/Name : Художественный фильм
Comment : Релиз-группа MediaClub

Video
ID : 0
Format : MPEG-4 Visual
Format profile : Advanced Simple@L5
Format settings, BVOP : 2
Format settings, QPel : No
Format settings, GMC : No warppoints
Format settings, Matrix : Default (MPEG)
Codec ID : XVID
Codec ID/Hint : XviD
Duration : 1h 35mn
Bit rate : 1 850 Kbps
Width : 688 pixels
Height : 512 pixels
Display aspect ratio : 4:3
Frame rate : 25.000 fps
Color space : YUV
Chroma subsampling : 4:2:0
Bit depth : 8 bits
Scan type : Progressive
Compression mode : Lossy
Bits/(Pixel*Frame) : 0.210
Stream size : 1.23 GiB (90%)
Writing library : XviD 1.2.1 (UTC 2008-12-04)

Audio
ID : 1
Format : AC-3
Format/Info : Audio Coding 3
Mode extension : CM (complete main)
Format settings, Endianness : Big
Codec ID : 2000
Duration : 1h 35mn
Bit rate mode : Constant
Bit rate : 192 Kbps
Channel(s) : 2 channels
Channel positions : Front: L R
Sampling rate : 48.0 KHz
Bit depth : 16 bits
Compression mode : Lossy
Stream size : 131 MiB (9%)
Alignment : Split accross interleaves
Interleave, duration : 40 ms (1.00 video frame)
Interleave, preload duration : 500 ms
_____________________________________________________________

General
Complete name : F:РипыПоднятая целина (3 серии). 1959-1961. XviD. DVDRip-Morgan73Поднятая целина (3 серия). 1961. XviD. DVDRip-Morgan73.avi
Format : AVI
Format/Info : Audio Video Interleave
File size : 1.37 GiB
Duration : 1h 40mn
Overall bit rate : 1 952 Kbps
Movie name : Поднятая целина (3 серия) 1961
Director : Rip by Morgan73
Genre : Драма, экранизация
Writing application : VirtualDubMod 1.5.10.2 (build 2540/release)
Original source form/Name : Художественный фильм
Comment : Релиз-группа MediaClub

Video
ID : 0
Format : MPEG-4 Visual
Format profile : Advanced Simple@L5
Format settings, BVOP : 2
Format settings, QPel : No
Format settings, GMC : No warppoints
Format settings, Matrix : Default (MPEG)
Codec ID : XVID
Codec ID/Hint : XviD
Duration : 1h 40mn
Bit rate : 1 750 Kbps
Width : 688 pixels
Height : 512 pixels
Display aspect ratio : 4:3
Frame rate : 25.000 fps
Color space : YUV
Chroma subsampling : 4:2:0
Bit depth : 8 bits
Scan type : Progressive
Compression mode : Lossy
Bits/(Pixel*Frame) : 0.199
Stream size : 1.23 GiB (90%)
Writing library : XviD 1.2.1 (UTC 2008-12-04)

Audio
ID : 1
Format : AC-3
Format/Info : Audio Coding 3
Mode extension : CM (complete main)
Format settings, Endianness : Big
Codec ID : 2000
Duration : 1h 40mn
Bit rate mode : Constant
Bit rate : 192 Kbps
Channel(s) : 2 channels
Channel positions : Front: L R
Sampling rate : 48.0 KHz
Bit depth : 16 bits
Compression mode : Lossy
Stream size : 138 MiB (10%)
Alignment : Split accross interleaves
Interleave, duration : 40 ms (1.00 video frame)
Interleave, preload duration : 500 ms



Релиз от: |



   Похожие торренты   Торрент   Размер 
В этой теме нет новых непрочитанных сообщений. Поднятая целина (1959-1961) DVDRip-AVC от ExKinoRay

114 | 23

6.09 ГБ

В этой теме нет новых непрочитанных сообщений. Поднятая целина (1959) DVDRip

27 | 9

2.03 ГБ

В этой теме нет новых непрочитанных сообщений. Поднятая целина (1959) DVDRip

21 | 7

2.91 ГБ

В этой теме нет новых непрочитанных сообщений. Михаил Шолохов - Поднятая целина (1932-1959) (1978) MP3

140 | 82

668.13 МБ

В этой теме нет новых непрочитанных сообщений. Поднятая целина (1939) DVDRip от MediaClub

120 | 23

1.45 ГБ

В этой теме нет новых непрочитанных сообщений. Спектакль - Поднятая целина (1971) SATRip от MediaClub

39 | 6

2.06 ГБ

В этой теме нет новых непрочитанных сообщений. Хозяин и слуга / 01-99 / Шелковица / ТЖВЖИК (1962, 1959, 1978, 1961) DVD5

0 | 3

3.61 ГБ




Вы не можете начинать темы
Вы не можете отвечать на сообщения
Вы не можете редактировать свои сообщения
Вы не можете удалять свои сообщения
Вы не можете добавлять вложения

Перейти:  
Для Мосгорсуда, Роскомнадзора и рекламодателей: mosgorsud-torrent[собачка]yandex.ru
 Вход
ppkBB3cker v.2 © 2008-2014 @ PPK
[ Time : 0.013s | 15 Queries | GZIP : Off ]
CGP output time : 0.063s | 5 Queries | GZIP : Off

Торрент трекер RUTOR.IN, Не можете зайти на rutor.org? Какой новый адрес рутор? Какое зеркало рутор? Не работает rutor.org и зеркала? Тогда наш торрент специально для вас. Rutor.in неофициальное зеркало rutor. В случае если у Вас заблокирован rutor или вдруг Вы не можете на него зайти, то Вы без труда сможете скачать бесплатно и без рекламы последние новинки кино, игр, сериалов и прочего у нас, на Rutor.in. Не нужно использовать прокси, чтобы зайти на рутор, достаточно воспользоваться нашим ресурсом. Все новые фильмы, игры, сериалы, книги и музыка за 2013 и 2014 годы через торрент бесплатно. Скачивайте фильмы в хорошем качестве, игры для пк, xbox, playstation без регистрации. У нас вы найдете новые Зарубежные сериалы и Русские сериалы 2013, 2014, 2015 годов. Оставайтесь с нами, качайте любимые фильмы, игры, сериалы, книги и музыку.