img image001 image001 image001 image001 image001 image001 image001 image001 image001 image001 image001 image001 image001 image001 image001

Planets Sun Sun Sun
Статистика раздачи
Автор: Nickolas3434 | Размер: 4.37 ГБ | Добавлен: 31 июл 2014
Раздают: 296    Качают: 8
Скачать торрент
Скачать торрент
Описание торрента

СообщениеДобавлено: 31 июл 2014 

Страна: Россия, Болгария
Жанр: драма, военный
Год выпуска: 2008
Продолжительность: 01:20:21
Перевод: Не требуется


Режиссер: Алексей Учитель


В ролях: Юлия Пересильд (Настя), Вячеслав Крикунов (Рубахин), Петр Логачев (Вовка-стрелок), Ираклий Мсхалаиа (Джамал), Сергей Уманов (Савкин), Тагир Рахимов (Гуров), Лариса Шамсадова (Исса), Светлана Дорохина (жена Гурова), Иван Косичкин, Дагун Омаев (Алибеков)


Описание: Кавказская война. Чеченцы перекрыли дорогу, и федералам нужно заплатить за проезд. Денег или патронов нет, подкрепления ждать неоткуда, поэтому двое бывалых рядовых-старослужащих ловят пленного, чтобы им расплатиться за проезд. Груз, впрочем, оказывается более ценным и опасным, чем они думали.






Семпл


Качество: BDRip
Контейнер: MKV

Видео: AVC, 1280x720 (16:9), 7342 kbps, 25 fps, 0,319 bpp
Аудио: русский / AC3 / 5.1 / 48 kHz / 448 kbps



Format : Matroska
Format version : Version 2
File size : 4.37 GiB
Duration : 1h 20mn
Overall bit rate : 7 783 Kbps
Encoded date : UTC 2014-07-29 08:16:47
Writing application : mkvmerge v3.3.0 ('Language') gebaut am Mar 24 2010 14:59:24
Writing library : libebml v0.8.0 + libmatroska v0.9.0

Video
ID : 1
Format : AVC
Format/Info : Advanced Video Codec
Format profile : High@L4.1
Format settings, CABAC : Yes
Format settings, ReFrames : 8 frames
Codec ID : V_MPEG4/ISO/AVC
Duration : 1h 20mn
Bit rate : 7 342 Kbps
Width : 1 280 pixels
Height : 720 pixels
Display aspect ratio : 16:9
Frame rate : 25.000 fps
Color space : YUV
Chroma subsampling : 4:2:0
Bit depth : 8 bits
Scan type : Progressive
Bits/(Pixel*Frame) : 0.319
Stream size : 4.03 GiB (92%)
Title : Пленный BDRip 720p by SC Kosmos
Writing library : x264 core 142 r2431 ac76440
Encoding settings : cabac=1 / ref=8 / deblock=1:-2:-2 / analyse=0x3:0x113 / me=umh / subme=11 / psy=1 / psy_rd=1.00:0.00 / mixed_ref=1 / me_range=32 / chroma_me=1 / trellis=2 / 8x8dct=1 / cqm=0 / deadzone=21,11 / fast_pskip=0 / chroma_qp_offset=-2 / threads=12 / lookahead_threads=1 / sliced_threads=0 / nr=0 / decimate=1 / interlaced=0 / bluray_compat=0 / constrained_intra=0 / bframes=10 / b_pyramid=2 / b_adapt=1 / b_bias=0 / direct=3 / weightb=1 / open_gop=0 / weightp=2 / keyint=250 / keyint_min=25 / scenecut=40 / intra_refresh=0 / rc_lookahead=40 / rc=2pass / mbtree=0 / bitrate=7342 / ratetol=1.0 / qcomp=0.60 / qpmin=0 / qpmax=69 / qpstep=4 / cplxblur=20.0 / qblur=0.5 / vbv_maxrate=50000 / vbv_bufsize=50000 / nal_hrd=none / filler=0 / ip_ratio=1.40 / pb_ratio=1.30 / aq=1:1.00
Language : Russian
Default : No
Forced : No

Audio
ID : 2
Format : AC-3
Format/Info : Audio Coding 3
Mode extension : CM (complete main)
Codec ID : A_AC3
Duration : 1h 20mn
Bit rate mode : Constant
Bit rate : 448 Kbps
Channel(s) : 6 channels
Channel positions : Front: L C R, Side: L R, LFE
Sampling rate : 48.0 KHz
Bit depth : 16 bits
Compression mode : Lossy
Stream size : 258 MiB (6%)
Language : Russian
Default : Yes
Forced : No









   Похожие торренты   Торрент   Размер 
В этой теме нет новых непрочитанных сообщений. Пленный / Кавказский пленный (2008) HDTV 1080i от MediaClub

35 | 20

6.44 ГБ

В этой теме нет новых непрочитанных сообщений. Пленный (2008) DVDRip

244 | 18

699.71 МБ

В этой теме нет новых непрочитанных сообщений. Пленный (2008) DVDRip от R.G. Mega Best

102 | 6

1.37 ГБ

В этой теме нет новых непрочитанных сообщений. Пленный (2008) HDRip от Шкипер

532 | 156

747.59 МБ

В этой теме нет новых непрочитанных сообщений. Кудрова Ирма - Пленный лев. Последние годы чужбины (2013) MP3

0 | 8

145.38 МБ

В этой теме нет новых непрочитанных сообщений. Меня зовут Эрл / My name is Earl [S01-04] (2005-2008) HDTVRip 720p, BDRip 720p | Рен ТВ

12 | 96

106.57 ГБ

В этой теме нет новых непрочитанных сообщений. Феи 1-5 / Tinker Bell 1-5 (2008-2012) BDRip 720p, HDRip 720p

850 | 71

8.17 ГБ




Вы не можете начинать темы
Вы не можете отвечать на сообщения
Вы не можете редактировать свои сообщения
Вы не можете удалять свои сообщения
Вы не можете добавлять вложения

Перейти:  
Для Мосгорсуда, Роскомнадзора и рекламодателей: mosgorsud-torrent[собачка]yandex.ru
 Вход
ppkBB3cker v.2 © 2008-2014 @ PPK
[ Time : 0.084s | 15 Queries | GZIP : Off ]

Торрент трекер RUTOR.IN, Не можете зайти на rutor.org? Какой новый адрес рутор? Какое зеркало рутор? Не работает rutor.org и зеркала? Тогда наш торрент специально для вас. Rutor.in неофициальное зеркало rutor. В случае если у Вас заблокирован rutor или вдруг Вы не можете на него зайти, то Вы без труда сможете скачать бесплатно и без рекламы последние новинки кино, игр, сериалов и прочего у нас, на Rutor.in. Не нужно использовать прокси, чтобы зайти на рутор, достаточно воспользоваться нашим ресурсом. Все новые фильмы, игры, сериалы, книги и музыка за 2013 и 2014 годы через торрент бесплатно. Скачивайте фильмы в хорошем качестве, игры для пк, xbox, playstation без регистрации. У нас вы найдете новые Зарубежные сериалы и Русские сериалы 2013, 2014, 2015 годов. Оставайтесь с нами, качайте любимые фильмы, игры, сериалы, книги и музыку.