img image001 image001 image001 image001 image001 image001 image001 image001 image001 image001 image001 image001 image001 image001 image001

Planets Sun Sun Sun
Статистика раздачи
Автор: Nickolas3434 | Размер: 2.59 ГБ | Добавлен: 01 авг 2014
Раздают: 629    Качают: 41
Скачать торрент
Скачать торрент
Описание торрента

СообщениеДобавлено: 01 авг 2014 

Информация о фильме
Оригинальное название: Восьмерка
Год выпуска: 2013
Жанр: Боевик, мелодрама
Выпущено: Россия, ТПО Рок
Режиссер: Алексей Учитель
В ролях: Артур Смольянинов, Вильма Кутавичюте, Алексей Манцыгин, Александр Новин, Артем Быстров, Павел Ворожцов, Захар Прилепин, Ирина Пегова, Сергей Пускепалис, Владимир Пирожок

О фильме: Фильм рассказывает об истории жизни четырёх друзей - эдаких "мушкетёрах современности". Ребята отслужили в армии, а вернувшись домой, приняли единогласное решение о службе в ОМОНе. Любовь без тормозов становится причиной смертельной схватки между четверкой молодых парней из спецназа и бандой, которая держит в страхе весь город.



Файл
Качество: WEB-DL (720p)
Видео: MPEG-4 AVC, 3994 Кбит/с, 960x720@1280x720
Аудио: AC3, 6 ch, 448 Кбит/с
Продолжительность: 01:21:51
Язык: Русский (Лицензия) R5

General
Unique ID : 176198608832020332533157111495034608527 (0x848E9E20FD95E40CB99F8651525F1B8F)
Complete name : C:Vosmerka.2014.O.WEB-DL.720p.ExKinoRay.mkv
Format : Matroska
Format version : Version 2
File size : 2.59 GiB
Duration : 1h 21mn
Overall bit rate : 4 533 Kbps
Encoded date : UTC 2014-07-31 01:32:05
Writing application : mkvmerge v4.9.1 ('Ich will') built on Jul 11 2011 23:53:15
Writing library : libebml v1.2.1 + libmatroska v1.1.1

Video
ID : 1
Format : AVC
Format/Info : Advanced Video Codec
Format profile : Main@L3.1
Format settings, CABAC : No
Format settings, ReFrames : 2 frames
Codec ID : V_MPEG4/ISO/AVC
Duration : 1h 21mn
Bit rate : 3 994 Kbps
Width : 960 pixels
Height : 720 pixels
Display aspect ratio : 16:9
Frame rate mode : Constant
Frame rate : 25.000 fps
Color space : YUV
Chroma subsampling : 4:2:0
Bit depth : 8 bits
Scan type : Progressive
Bits/(Pixel*Frame) : 0.231
Stream size : 2.28 GiB (88%)
Language : English
Default : Yes
Forced : No
Color primaries : BT.709
Transfer characteristics : BT.709
Matrix coefficients : BT.709

Audio
ID : 2
Format : AC-3
Format/Info : Audio Coding 3
Mode extension : CM (complete main)
Format settings, Endianness : Big
Codec ID : A_AC3
Duration : 1h 21mn
Bit rate mode : Constant
Bit rate : 448 Kbps
Channel(s) : 6 channels
Channel positions : Front: L C R, Side: L R, LFE
Sampling rate : 48.0 KHz
Bit depth : 16 bits
Compression mode : Lossy
Stream size : 262 MiB (10%)
Language : Russian
Default : Yes
Forced : No

Menu
00:00:00.000 : en:Глава 1
00:05:10.000 : en:Глава 2
00:10:48.000 : en:Глава 3
00:14:58.000 : en:Глава 4
00:19:45.000 : en:Глава 5
00:25:49.000 : en:Глава 6
00:30:16.000 : en:Глава 7
00:35:20.000 : en:Глава 8
00:39:32.000 : en:Глава 9
00:44:07.000 : en:Глава 10
00:49:57.000 : en:Глава 11
00:55:52.000 : en:Глава 12
01:02:33.000 : en:Глава 13
01:08:11.000 : en:Глава 14
01:13:06.000 : en:Глава 15





Релиз от:



   Похожие торренты   Торрент   Размер 
В этой теме нет новых непрочитанных сообщений. Восьмерка (2014) WEB-DLRip-AVC от ExKinoRay | Лицензия

1965 | 94

1.76 ГБ

В этой теме нет новых непрочитанных сообщений. Восьмерка (2014) WEB-DLRip-AVC от ExKinoRay | iTunes

1990 | 111

1.73 ГБ

В этой теме нет новых непрочитанных сообщений. Неукротимая восьмерка / Непобедимая восьмерка / Tian long ba jiang / Invincible Eight (1971) DVDRip от KinoZalSat

3 | 3

1.37 ГБ

В этой теме нет новых непрочитанных сообщений. Восьмерка (2014) DVDRip от Scarabey | Лицензия

524 | 28

1.45 ГБ

В этой теме нет новых непрочитанных сообщений. Восьмерка (2014) WEB-DLRip от Generalfilm | КПК | Лицензия

203 | 15

280.98 МБ

В этой теме нет новых непрочитанных сообщений. Восьмерка (2014) WEB-DL 720p

2063 | 124

2.56 ГБ

В этой теме нет новых непрочитанных сообщений. Восьмёрка беглецов / Eight on the Lam (1967) DVDRip от ExKinoRay | P2

15 | 3

1.37 ГБ




Вы не можете начинать темы
Вы не можете отвечать на сообщения
Вы не можете редактировать свои сообщения
Вы не можете удалять свои сообщения
Вы не можете добавлять вложения

Перейти:  
Для Мосгорсуда, Роскомнадзора и рекламодателей: mosgorsud-torrent[собачка]yandex.ru
 Вход
ppkBB3cker v.2 © 2008-2014 @ PPK
[ Time : 0.082s | 15 Queries | GZIP : Off ]

Торрент трекер RUTOR.IN, Не можете зайти на rutor.org? Какой новый адрес рутор? Какое зеркало рутор? Не работает rutor.org и зеркала? Тогда наш торрент специально для вас. Rutor.in неофициальное зеркало rutor. В случае если у Вас заблокирован rutor или вдруг Вы не можете на него зайти, то Вы без труда сможете скачать бесплатно и без рекламы последние новинки кино, игр, сериалов и прочего у нас, на Rutor.in. Не нужно использовать прокси, чтобы зайти на рутор, достаточно воспользоваться нашим ресурсом. Все новые фильмы, игры, сериалы, книги и музыка за 2013 и 2014 годы через торрент бесплатно. Скачивайте фильмы в хорошем качестве, игры для пк, xbox, playstation без регистрации. У нас вы найдете новые Зарубежные сериалы и Русские сериалы 2013, 2014, 2015 годов. Оставайтесь с нами, качайте любимые фильмы, игры, сериалы, книги и музыку.