img image001 image001 image001 image001 image001 image001 image001 image001 image001 image001 image001 image001 image001 image001 image001

Planets Sun Sun Sun
Статистика раздачи
Автор: Nickolas3434 | Размер: 746.01 МБ | Добавлен: 03 авг 2014
Раздают: 98    Качают: 6
Скачать торрент
Скачать торрент
Описание торрента

СообщениеДобавлено: 03 авг 2014 

Информация о фильме
Название: Хоттабыч
Оригинальное название: }{отт@бь)ч
Год выхода: 2006
Жанр: Фантастика, фэнтези, комедия, приключения, экранизация
Режиссёр: Пётр Точилин
В ролях: Владимир Толоконников, Марюс Ямпольскис, Лива Круминя, Марк Гейхман, Юлия Паранова, Мила Липнер, Григорий Скряпкин, Иван Губанов, Александр Овчинников (мл.), Юрий Думчев, Константин Спасский, Ростислав Крохин, Самвел Асатрян, Николай Доброхотов, Андрей Дубровский, Полина Ганшина, Константин Кутаров, Светлана Павлова, Олег Поплавский, Михаил Рубцов, Александр Селезнев, Павел Сиротин, Мила Солдаткина, Дмитрий Таланцев, Максим Важов, Елена Волкова, Геннадий Косарев, Антон Эльдаров, Александр Шатохин, Сергей Годин, Евграф Прохоров, Юрий Волошенко

О фильме: Гена - программист по призванию и хакер по жизни. Он хороший парень. Но у него реальные проблемы. Его бросила любимая девушка, его «пасут» бандиты и выслеживают спецслужбы. Спасти его может только чудо, и оно, конечно же, случается. В жизни Гены появляется Хоттабыч, джин, который отмотал несколько тысяч лет заключения в одиночном кувшине.
И теперь готов исполнить три любых желания своего освободителя. Но у самого Хоттабыча тоже проблемы. За ним охотится его давний враг - Шайтаныч. Спасаясь от своих врагов, Гена и Хоттабыч летают на потраченном говорящей молью ковре-самолете над Красной площадью, путешествуют по сетям Мировой Паутины и практикуют магию: превращают людей в вещи, а вещи в людей…



Выпущено: Кинокомпания CTB, Россия
Продолжительность: 01:31:48
Перевод: Не требуется

Файл
Качество: DVDRip [Исходник: DVD-5]
Видео: XviD, 656x336 (1.952), 998 Кбит/с, 25 кадр/с
Аудио: MP3, 48000 Гц, 128 Кбит/с, 2 канала (Стерео)



General
Complete name : Khottabych.2006.DVDRip.745MB.avi
Format : AVI
Format/Info : Audio Video Interleave
File size : 746 MiB
Duration : 1h 31mn
Overall bit rate : 1 136 Kbps
Movie name : Хоттабыч / }{отт@бь)ч (2006) DVDRip
Genre : Фантастика, фэнтези, комедия, приключения, экранизация
Recorded date : 02.08.2014
Writing application : VirtualDubMod 1.5.10.3 (build 2550/release)
Writing library : VirtualDubMod build 2550/release
Copyright : rip by ivandubskoj

Video
ID : 0
Format : MPEG-4 Visual
Format profile : Advanced Simple@L5
Format settings, BVOP : 2
Format settings, QPel : No
Format settings, GMC : No warppoints
Format settings, Matrix : Custom
Codec ID : XVID
Codec ID/Hint : XviD
Duration : 1h 31mn
Bit rate : 998 Kbps
Width : 656 pixels
Height : 336 pixels
Display aspect ratio : 1.952
Frame rate : 25.000 fps
Color space : YUV
Chroma subsampling : 4:2:0
Bit depth : 8 bits
Scan type : Progressive
Compression mode : Lossy
Bits/(Pixel*Frame) : 0.181
Stream size : 656 MiB (88%)
Writing library : XviD 73

Audio
ID : 1
Format : MPEG Audio
Format version : Version 1
Format profile : Layer 3
Codec ID : 55
Codec ID/Hint : MP3
Duration : 1h 31mn
Bit rate mode : Constant
Bit rate : 128 Kbps
Channel(s) : 2 channels
Sampling rate : 48.0 KHz
Compression mode : Lossy
Stream size : 84.1 MiB (11%)
Alignment : Aligned on interleaves
Interleave, duration : 40 ms (1.00 video frame)
Interleave, preload duration : 504 ms
Title : Russian
Writing library : LAME3.99r
Encoding settings : -m s -V 4 -q 0 -lowpass 17 -b 128



Автор рипа - ivandubskoj



   Похожие торренты   Торрент   Размер 
В этой теме нет новых непрочитанных сообщений. Хоттабыч / }{отт@бь)ч (2006) DVDRip от ivandubskoj

472 | 23

1.47 ГБ

В этой теме нет новых непрочитанных сообщений. Хоттабыч / }{отт@бь)ч (2006) DVDRip

17 | 3

1.37 ГБ

В этой теме нет новых непрочитанных сообщений. Хоттабыч / }{отт@бь)ч (2006) DVDRip | КПК

53 | 9

349.27 МБ

В этой теме нет новых непрочитанных сообщений. Хоттабыч / }{отт@бь)ч (2006) DVDRip-AVC

179 | 3

1.89 ГБ

В этой теме нет новых непрочитанных сообщений. Хоттабыч / }{отт@бь)ч (2006) DVDRip-AVC

132 | 36

2.09 ГБ

В этой теме нет новых непрочитанных сообщений. Хоттабыч (2006) DVDRip

40 | 6

702.81 МБ

В этой теме нет новых непрочитанных сообщений. Хоттабыч / }{отт@бь)ч (2006) DVD-5

27 | 6

4.07 ГБ




Вы не можете начинать темы
Вы не можете отвечать на сообщения
Вы не можете редактировать свои сообщения
Вы не можете удалять свои сообщения
Вы не можете добавлять вложения

Перейти:  
Для Мосгорсуда, Роскомнадзора и рекламодателей: mosgorsud-torrent[собачка]yandex.ru
 Вход
ppkBB3cker v.2 © 2008-2014 @ PPK
[ Time : 0.028s | 16 Queries | GZIP : Off ]

cron