img image001 image001 image001 image001 image001 image001 image001 image001 image001 image001 image001 image001 image001 image001 image001

Planets Sun Sun Sun
Статистика раздачи
Автор: Nickolas3434 | Размер: 1.36 ГБ | Добавлен: 04 авг 2014
Раздают: 124    Качают: 14
Скачать торрент
Скачать торрент
Описание торрента

СообщениеДобавлено: 04 авг 2014 

Информация о фильме
Оригинальное название: Прощеное воскресенье
Год выхода: 2007
Жанр: Мелодрама
Режиссер: Татьяна Ходаковская
В ролях: Сергей Шеховцов, Татьяна Короткова, Инна Мирошниченко, Светлана Артамонова, Евгений Плиско, Виталина Библив, Олег Примагенов

О фильме:
Молодой парень Максим знакомит родителей со своей любимой девушкой Настей, они влюблены и собираются пожениться. К тому же выясняется, что Настя беременна, и Максим с радостью воспринимает эту новость. Казалось бы, ничто не омрачит счастья будущей молодой семьи… Интуиция отца заставляет его обратиться к прошлому. Совпадение ли то, что девушка сына родом из города Снегова, где у него был роман с женщиной много лет назад? Беспокойство за сына и страшная догадка будоражат сердце отца. Михаил отправляется в Снегов, где Вера, мать Насти, подтверждает догадку: девушка — его дочь, а значит молодые люди — брат и сестра… Глубокие переживания, любовь, чувство долга и жестокий рок обрушиваются на героев фильма…


Страна: Украина
Студия: Кинокомпания Шпиль, Film UA, Pronto Film
Продолжительность: 01:30:55
Язык: Русский

Файл
Кодек: XviD
Качество: DVDRip
Видео: 1942 Кбит/с, 720x416, 25.000 кадр/с
Звук: (АС3, 2 ch, 192 Кбит/с)

Семпл


Общее
Полное имя : Prowenoe.voskresenie.2007.DVDRip.MediaClub.avi
Формат : AVI
Формат/Информация : Audio Video Interleave
Размер файла : 1,36 Гбайт
Продолжительность : 1 ч. 30 м.
Общий поток : 2144 Кбит/сек
Название фильма : MediaClub
Программа кодирования : VirtualDubMod 1.5.10.2 (build 2540/release)
Библиотека кодирования : VirtualDubMod build 2540/release

Видео
Идентификатор : 0
Формат : MPEG-4 Visual
Профиль формата : Advanced Simple@L5
Параметр BVOP формата : 2
Параметр QPel формата : Нет
Параметр GMC формата : Без точки перехода
Параметр матрицы формата : Default (MPEG)
Идентификатор кодека : XVID
Идентификатор кодека/Подсказка : XviD
Продолжительность : 1 ч. 30 м.
Битрейт : 1942 Кбит/сек
Ширина : 720 пикселей
Высота : 416 пикселей
Соотношение сторон : 1,731
Частота кадров : 25,000 кадров/сек
Цветовое пространство : YUV
Субдискретизация насыщенности : 4:2:0
Битовая глубина : 8 бит
Тип развёртки : Прогрессивная
Метод сжатия : С потерями
Бит/(Пиксели*Кадры) : 0.259
Размер потока : 1,23 Гбайт (91%)
Библиотека кодирования : XviD 65

Аудио
Идентификатор : 1
Формат : AC-3
Формат/Информация : Audio Coding 3
Расширение режима : CM (complete main)
Параметр Endianness формата : Big
Идентификатор кодека : 2000
Продолжительность : 1 ч. 30 м.
Вид битрейта : Постоянный
Битрейт : 192 Кбит/сек
Каналы : 2 канала
Расположение каналов : Front: L R
Частота : 48,0 КГц
Битовая глубина : 16 бит
Метод сжатия : С потерями
Размер потока : 125 Мбайт (9%)
Выравнивание : Разделение по промежуткам
Продолжительность промежутка : 40 мс. (1,00 видеокадр)
Время предзагрузки промежутка : 500 мс.


Релиз от:



   Похожие торренты   Торрент   Размер 
В этой теме нет новых непрочитанных сообщений. Прощеное воскресенье (2007) DVDRip

34 | 17

700.03 МБ

В этой теме нет новых непрочитанных сообщений. Прощеное воскресенье (2007) DVDRip

81 | 8

691.32 МБ

В этой теме нет новых непрочитанных сообщений. Никогда в воскресенье / Только не в воскресенье / Pote tin Kyriaki / Never on sunday (1960) DVDRip

13 | 8

1.46 ГБ

В этой теме нет новых непрочитанных сообщений. Прощенное воскресенье (2001) DVDRip от MediaClub

79 | 37

1.22 ГБ

В этой теме нет новых непрочитанных сообщений. Гордон Рамзи. Семейный обед в воскресенье / Gordon Ramsays Sunday Lunch (2008) DVDRip-AVC от MediaClub

4 | 2

548.48 МБ

В этой теме нет новых непрочитанных сообщений. Единственное воскресенье (Только воскресенье) / Ainus pühapäev (1990) TVRip

0 | 3

1.11 ГБ

В этой теме нет новых непрочитанных сообщений. Единственное воскресенье (Только воскресенье) / Ainus pühapäev (1990) TVRip

4 | 0

1.11 ГБ




Вы не можете начинать темы
Вы не можете отвечать на сообщения
Вы не можете редактировать свои сообщения
Вы не можете удалять свои сообщения
Вы не можете добавлять вложения

Перейти:  
Для Мосгорсуда, Роскомнадзора и рекламодателей: mosgorsud-torrent[собачка]yandex.ru
 Вход
ppkBB3cker v.2 © 2008-2014 @ PPK
[ Time : 0.032s | 16 Queries | GZIP : Off ]

Торрент трекер RUTOR.IN, Не можете зайти на rutor.org? Какой новый адрес рутор? Какое зеркало рутор? Не работает rutor.org и зеркала? Тогда наш торрент специально для вас. Rutor.in неофициальное зеркало rutor. В случае если у Вас заблокирован rutor или вдруг Вы не можете на него зайти, то Вы без труда сможете скачать бесплатно и без рекламы последние новинки кино, игр, сериалов и прочего у нас, на Rutor.in. Не нужно использовать прокси, чтобы зайти на рутор, достаточно воспользоваться нашим ресурсом. Все новые фильмы, игры, сериалы, книги и музыка за 2013 и 2014 годы через торрент бесплатно. Скачивайте фильмы в хорошем качестве, игры для пк, xbox, playstation без регистрации. У нас вы найдете новые Зарубежные сериалы и Русские сериалы 2013, 2014, 2015 годов. Оставайтесь с нами, качайте любимые фильмы, игры, сериалы, книги и музыку.
cron