img image001 image001 image001 image001 image001 image001 image001 image001 image001 image001 image001 image001 image001 image001 image001

Planets Sun Sun Sun
Статистика раздачи
Автор: Nickolas3434 | Размер: 4.07 ГБ | Добавлен: 04 авг 2014
Раздают: 27    Качают: 6
Скачать торрент
Скачать торрент
Описание торрента

СообщениеДобавлено: 04 авг 2014 

Информация о фильме
Название: Хоттабыч
Оригинальное название: }{отт@бь)ч
Год выхода: 2006
Жанр: Фантастика, фэнтези, комедия, приключения, экранизация
Режиссёр: Пётр Точилин
В ролях: Владимир Толоконников, Марюс Ямпольскис, Лива Круминя, Марк Гейхман, Юлия Паранова, Мила Липнер, Григорий Скряпкин, Иван Губанов, Александр Овчинников (мл.), Юрий Думчев, Константин Спасский, Ростислав Крохин, Самвел Асатрян, Николай Доброхотов, Андрей Дубровский, Полина Ганшина, Константин Кутаров, Светлана Павлова, Олег Поплавский, Михаил Рубцов, Александр Селезнев, Павел Сиротин, Мила Солдаткина, Дмитрий Таланцев, Максим Важов, Елена Волкова, Геннадий Косарев, Антон Эльдаров, Александр Шатохин, Сергей Годин, Евграф Прохоров, Юрий Волошенко

О фильме: Гена - программист по призванию и хакер по жизни. Он хороший парень. Но у него реальные проблемы. Его бросила любимая девушка, его «пасут» бандиты и выслеживают спецслужбы. Спасти его может только чудо, и оно, конечно же, случается. В жизни Гены появляется Хоттабыч, джин, который отмотал несколько тысяч лет заключения в одиночном кувшине.
И теперь готов исполнить три любых желания своего освободителя. Но у самого Хоттабыча тоже проблемы. За ним охотится его давний враг - Шайтаныч. Спасаясь от своих врагов, Гена и Хоттабыч летают на потраченном говорящей молью ковре-самолете над Красной площадью, путешествуют по сетям Мировой Паутины и практикуют магию: превращают людей в вещи, а вещи в людей…



Выпущено: Кинокомпания CTB, Россия
Продолжительность: 01:31:48
Перевод: Не требуется
Субтитры: Нет

Файл
Качество: DVD-5
Видео: MPEG2, PAL, 720x576 (16:9), 4920 Кбит/с, VBR, 25 кадр/с
Аудио: Русский, Dolby AC3, 48000 Гц, 448 Кбит/с, 6 каналов (5.1)

Дополнительно: Киножурнал - "Смотрите на DVD"

Title: HT
Size: 4.07 Gb ( 4 272 198,00 KBytes ) - DVD-5
Enabled regions: 1, 2, 3, 4, 5, 6, 7, 8

VTS_01 :
Play Length: 00:00:13
Video: PAL 4:3 (720x576) VBR
Audio:
Russian (Dolby AC3, 2 ch)

VTS_02 :
Play Length: 01:31:48
Video: PAL 16:9 (720x576) VBR, Auto Letterboxed
Audio:
Russian (Dolby AC3, 6 ch)

VTS_03 :
Play Length: 00:02:12
Video: PAL 16:9 (720x576) VBR, Auto Letterboxed
Audio:
Russian (Dolby AC3, 2 ch)

VTS_04 :
Play Length: 00:01:24
Video: PAL 16:9 (720x576) VBR, Auto Letterboxed
Audio:
Russian (Dolby AC3, 2 ch)

VTS_05 :
Play Length: 00:02:08
Video: PAL 4:3 (720x576) VBR
Audio:
Russian (Dolby AC3, 2 ch)

VTS_06 :
Play Length: 00:02:03
Video: PAL 16:9 (720x576) VBR, Auto Pan&Scan, Auto Letterboxed
Audio:
Russian (Dolby AC3, 2 ch)

VTS_07 :
Play Length: 00:01:35
Video: PAL 4:3 (720x576) VBR
Audio:
Russian (Dolby AC3, 2 ch)

* Menus Information *

VIDEO_TS Menu
Video:
PAL 4:3 (720x576) VBR
English Language Unit :
Title Menu

VTS_01 Menu
Video:
PAL 4:3 (720x576) VBR
English Language Unit :
Root Menu

VTS_02 Menu
Video:
PAL 16:9 (720x576) VBR
Auto Letterboxed
Audio:
Not specified (Dolby AC3, 2 ch)
English Language Unit :
Root Menu
Subpicture Menu
Audio Menu
Angle menu
Chapter (PTT) Menu

VTS_03 Menu
Video:
PAL 4:3 (720x576) VBR
English Language Unit :
Root Menu
Subpicture Menu
Audio Menu
Angle menu
Chapter (PTT) Menu

VTS_04 Menu
Video:
PAL 4:3 (720x576) VBR
English Language Unit :
Root Menu
Subpicture Menu
Audio Menu
Angle menu
Chapter (PTT) Menu

VTS_05 Menu
Video:
PAL 4:3 (720x576) VBR
English Language Unit :
Root Menu
Subpicture Menu
Audio Menu
Angle menu
Chapter (PTT) Menu

VTS_06 Menu
Video:
PAL 4:3 (720x576) VBR
English Language Unit :
Root Menu
Subpicture Menu
Audio Menu
Angle menu
Chapter (PTT) Menu

VTS_07 Menu
Video:
PAL 4:3 (720x576) VBR
English Language Unit :
Root Menu
Subpicture Menu
Audio Menu
Angle menu
Chapter (PTT) Menu
General
Complete name : VTS_02_1.VOB
Format : MPEG-PS
File size : 1 024 MiB
Duration : 26mn 8s
Overall bit rate : 5 477 Kbps

Video
ID : 224 (0xE0)
Format : MPEG Video
Format version : Version 2
Format profile : Main@Main
Format settings, BVOP : Yes
Format settings, Matrix : Default
Format settings, GOP : M=2, N=15
Duration : 26mn 8s
Bit rate mode : Constant
Bit rate : 4 920 Kbps
Nominal bit rate : 9 000 Kbps
Width : 720 pixels
Height : 576 pixels
Display aspect ratio : 2.35:1
Frame rate : 25.000 fps
Standard : PAL
Color space : YUV
Chroma subsampling : 4:2:0
Bit depth : 8 bits
Scan type : Interlaced
Scan order : Top Field First
Compression mode : Lossy
Bits/(Pixel*Frame) : 0.475
Stream size : 920 MiB (90%)

Audio
ID : 189 (0xBD)-128 (0x80)
Format : AC-3
Format/Info : Audio Coding 3
Mode extension : CM (complete main)
Muxing mode : DVD-Video
Duration : 25mn 54s
Bit rate mode : Constant
Bit rate : 448 Kbps
Channel(s) : 6 channels
Channel positions : Front: L C R, Side: L R, LFE
Sampling rate : 48.0 KHz
Bit depth : 16 bits
Compression mode : Lossy
Delay relative to video : 13s 303ms
Stream size : 83.0 MiB (8%)

Menu




   Похожие торренты   Торрент   Размер 
В этой теме нет новых непрочитанных сообщений. Хоттабыч / }{отт@бь)ч (2006) DVDRip-AVC

167 | 3

1.89 ГБ

В этой теме нет новых непрочитанных сообщений. Хоттабыч / }{отт@бь)ч (2006) DVDRip

17 | 3

1.37 ГБ

В этой теме нет новых непрочитанных сообщений. Хоттабыч (2006) DVDRip

40 | 6

702.81 МБ

В этой теме нет новых непрочитанных сообщений. Хоттабыч / }{отт@бь)ч (2006) DVDRip-AVC

132 | 36

2.09 ГБ

В этой теме нет новых непрочитанных сообщений. Хоттабыч / }{отт@бь)ч (2006) DVDRip | КПК

77 | 11

349.27 МБ

В этой теме нет новых непрочитанных сообщений. Хоттабыч / }{отт@бь)ч (2006) WEB-DLRip-AVC от MediaClub

134 | 8

1.63 ГБ

В этой теме нет новых непрочитанных сообщений. Хоттабыч / }{отт@бь)ч (2006) DVDRip от ivandubskoj

98 | 6

746.01 МБ




Вы не можете начинать темы
Вы не можете отвечать на сообщения
Вы не можете редактировать свои сообщения
Вы не можете удалять свои сообщения
Вы не можете добавлять вложения

Перейти:  
Для Мосгорсуда, Роскомнадзора и рекламодателей: mosgorsud-torrent[собачка]yandex.ru
 Вход
ppkBB3cker v.2 © 2008-2014 @ PPK
[ Time : 7.986s | 15 Queries | GZIP : Off ]

Торрент трекер RUTOR.IN, Не можете зайти на rutor.org? Какой новый адрес рутор? Какое зеркало рутор? Не работает rutor.org и зеркала? Тогда наш торрент специально для вас. Rutor.in неофициальное зеркало rutor. В случае если у Вас заблокирован rutor или вдруг Вы не можете на него зайти, то Вы без труда сможете скачать бесплатно и без рекламы последние новинки кино, игр, сериалов и прочего у нас, на Rutor.in. Не нужно использовать прокси, чтобы зайти на рутор, достаточно воспользоваться нашим ресурсом. Все новые фильмы, игры, сериалы, книги и музыка за 2013 и 2014 годы через торрент бесплатно. Скачивайте фильмы в хорошем качестве, игры для пк, xbox, playstation без регистрации. У нас вы найдете новые Зарубежные сериалы и Русские сериалы 2013, 2014, 2015 годов. Оставайтесь с нами, качайте любимые фильмы, игры, сериалы, книги и музыку.