img image001 image001 image001 image001 image001 image001 image001 image001 image001 image001 image001 image001 image001 image001 image001

Planets Sun Sun Sun
Статистика раздачи
Автор: Nickolas3434 | Размер: 1.46 ГБ | Добавлен: 05 авг 2014
Раздают: 180    Качают: 25
Скачать торрент
Скачать торрент
Описание торрента

СообщениеДобавлено: 05 авг 2014 

Информация о фильме
Название: Настоящая любовь
Год выхода: 2012
Жанр: Мелодрама, лирическая комедия, приключения
Режиссер: Сергей Попов
В ролях: Кристина Асмус, Илья Носков, Ольга Тумайкина, Анна Ардова, Анна Уколова, Дарья Чаруша, Алексей Гришин, Виталий Хаев, Тимофей Трибунцев, Артур Ваха, Елена Галибина, Марина Барсукова, Евгений Дремин, Эвелина Ваулина

О фильме:
Состоятельный адвокат Андрей и начинающая журналистка Лена - каждый по-своему несчастлив в личной жизни. Разведенный Андрей инкогнито ищет настоящую любовь, переодеваясь в нищего, потому что убежден: деньги портят чувства. А Лена тем временем полностью разочаровалась в мужчинах. Теперь ее цель – получить хорошую работу в газете, и в поисках сенсации она решает вывести на чистую воду брачных аферистов. Но, как говорится, любовь нечаянно нагрянет...



Страна: Россия
Студия: Кинокомпания «Всемирные Русские Студии»
Продолжительность: 01:34:49
Перевод: Не требуется

Файл
Кодек: XviD
Качество: HDTVRip [Исходник: HDTV (1080i)]
Видео: XviD, 704x400 (16:9), 2005 Кбит/с, 25 кадр/с
Звук: Русский, Dolby AC3, 48000 Гц, 192 Кбит/с, 2 канала (Стерео)
Субтитры: Нет



General
Complete name : Nastoyaschaya.lubov'.2012.HDTVRip.avi
Format : AVI
Format/Info : Audio Video Interleave
File size : 1.46 GiB
Duration : 1h 34mn
Overall bit rate : 2 205 Kbps
Movie name : Настоящая любовь (2012) HDTVRip
Genre : Мелодрама, комедия, приключения
Recorded date : 04.08.2014
Writing application : VirtualDubMod 1.5.10.3 (build 2550/release)
Writing library : VirtualDubMod build 2550/release
Copyright : rip by ivandubskoj

Video
ID : 0
Format : MPEG-4 Visual
Format profile : Advanced Simple@L5
Format settings, BVOP : 1
Format settings, QPel : No
Format settings, GMC : No warppoints
Format settings, Matrix : Custom
Codec ID : XVID
Codec ID/Hint : XviD
Duration : 1h 34mn
Bit rate : 2 005 Kbps
Width : 704 pixels
Height : 400 pixels
Display aspect ratio : 16:9
Frame rate : 25.000 fps
Color space : YUV
Chroma subsampling : 4:2:0
Bit depth : 8 bits
Scan type : Progressive
Compression mode : Lossy
Bits/(Pixel*Frame) : 0.285
Stream size : 1.33 GiB (91%)
Writing library : XviD 73

Audio
ID : 1
Format : AC-3
Format/Info : Audio Coding 3
Mode extension : CM (complete main)
Codec ID : 2000
Duration : 1h 34mn
Bit rate mode : Constant
Bit rate : 192 Kbps
Channel(s) : 2 channels
Channel positions : Front: L R
Sampling rate : 48.0 KHz
Bit depth : 16 bits
Compression mode : Lossy
Stream size : 130 MiB (9%)
Alignment : Split accross interleaves
Interleave, duration : 64 ms (1.60 video frames)
Interleave, preload duration : 500 ms
Title : Russian

Автор рипа - ivandubskoj



   Похожие торренты   Торрент   Размер 
В этой теме нет новых непрочитанных сообщений. Настоящая любовь (2012) HDTVRip

91 | 15

744.94 МБ

В этой теме нет новых непрочитанных сообщений. Настоящая любовь (2012) HDTVRip 720p

10 | 4

2.87 ГБ

В этой теме нет новых непрочитанных сообщений. Настоящая любовь / True Love [S01] (2012) HDTVRip | BaibaKo

6 | 3

1.8 ГБ

В этой теме нет новых непрочитанных сообщений. Настоящая любовь / True Love [S01] (2012) HDTVRip 720р | BaibaKo

0 | 2

3.75 ГБ

В этой теме нет новых непрочитанных сообщений. Настоящая любовь (2012) SATRip

48 | 4

1.33 ГБ

В этой теме нет новых непрочитанных сообщений. Настоящая любовь (2012) DVD5 | Лицензия

1 | 2

4.13 ГБ

В этой теме нет новых непрочитанных сообщений. Настоящая любовь (2012) SATRip от КинозалSAT

9 | 3

698.94 МБ




Вы не можете начинать темы
Вы не можете отвечать на сообщения
Вы не можете редактировать свои сообщения
Вы не можете удалять свои сообщения
Вы не можете добавлять вложения

Перейти:  
Для Мосгорсуда, Роскомнадзора и рекламодателей: mosgorsud-torrent[собачка]yandex.ru
 Вход
ppkBB3cker v.2 © 2008-2014 @ PPK
[ Time : 0.056s | 16 Queries | GZIP : Off ]

Торрент трекер RUTOR.IN, Не можете зайти на rutor.org? Какой новый адрес рутор? Какое зеркало рутор? Не работает rutor.org и зеркала? Тогда наш торрент специально для вас. Rutor.in неофициальное зеркало rutor. В случае если у Вас заблокирован rutor или вдруг Вы не можете на него зайти, то Вы без труда сможете скачать бесплатно и без рекламы последние новинки кино, игр, сериалов и прочего у нас, на Rutor.in. Не нужно использовать прокси, чтобы зайти на рутор, достаточно воспользоваться нашим ресурсом. Все новые фильмы, игры, сериалы, книги и музыка за 2013 и 2014 годы через торрент бесплатно. Скачивайте фильмы в хорошем качестве, игры для пк, xbox, playstation без регистрации. У нас вы найдете новые Зарубежные сериалы и Русские сериалы 2013, 2014, 2015 годов. Оставайтесь с нами, качайте любимые фильмы, игры, сериалы, книги и музыку.
cron