img image001 image001 image001 image001 image001 image001 image001 image001 image001 image001 image001 image001 image001 image001 image001

Planets Sun Sun Sun
Статистика раздачи
Автор: Nickolas3434 | Размер: 1.46 ГБ | Добавлен: 05 авг 2014
Раздают: 1012    Качают: 87
Скачать торрент
Скачать торрент
Описание торрента

СообщениеДобавлено: 05 авг 2014 


Страна: Россия / Мосфильм

Жанр: драма
Год выпуска: 2012
Продолжительность: 01:29:38

Перевод: Не требуется
Cубтитры: нет
Оригинальная аудиодорожка: русский

Режиссер: Александр Цацуев

В ролях: Сергей Шнырев, Мария Баева, Александр Пашутин, Артем Панчик, Владимир Панчик, Юлия Галкина, Елена Шилова, Тимофей Каратаев, Сергей Малюгов, Олег Харитонов

Описание: Эта история, основанная на реальных событиях, рассказывает о жизни знаменитого испанского летчика Хосе Фернандеса. В конце тридцатых годов двадцатого века он приехал в СССР для службы в Красной Армии. Бравому летчику удается пройти всю Вторую мировую войну и остаться в живых. На непростом пути войны Хосе встречает русскую девушку Машу, с которой у него завязывается долгий роман. Ради своей любви летчик решает остаться в Советском Союзе. Но в то время интернациональные браки не слишком приветствовались властями. Они вынуждают Хосе уехать в Испанию, даже несмотря на то, что его возлюбленная ждет ребенка. Но через много лет внуку Хосе, ставшему авиамехаником, суждено будет участвовать в продолжении истории его предка.



Качество: DVDRip / DVD5 R5 от «Lizard Cinema Trade»
Формат: AVI

Видео: 720x304 (2.35:1), 25.000 fps, XviD, ~2124 kbps avg, 0.388 bit/pix
Аудио: 48 kHz, Dolby AC3, 2 ch, 192 kbps, русский

Раздача от:
Общее
Полное имя : Ispanets.2012.O.DVDRip_[New-Team]_by_avproh.avi
Формат : AVI
Формат/Информация : Audio Video Interleave
Размер файла : 1,46 Гбайт
Продолжительность : 1 ч. 29 м.
Общий поток : 2326 Кбит/сек
Программа кодирования : VirtualDubMod 1.5.10.3 | www.virtualdub-fr.org || (build 2550/release)
Библиотека кодирования : VirtualDubMod build 2550/release

Видео
Идентификатор : 0
Формат : MPEG-4 Visual
Профиль формата : Advanced Simple@L5
Параметр BVOP формата : 1
Параметр QPel формата : Нет
Параметр GMC формата : Без точки перехода
Параметр матрицы формата : Выборочная
Идентификатор кодека : XVID
Идентификатор кодека/Подсказка : XviD
Продолжительность : 1 ч. 29 м.
Битрейт : 2124 Кбит/сек
Ширина : 720 пикселей
Высота : 304 пикселя
Соотношение сторон : 2,35:1
Частота кадров : 25,000 кадров/сек
Цветовое пространство : YUV
Субдискретизация насыщенности : 4:2:0
Битовая глубина : 8 бит
Тип развёртки : Прогрессивная
Метод сжатия : С потерями
Бит/(Пиксели*Кадры) : 0.388
Размер потока : 1,33 Гбайт (91%)
Библиотека кодирования : XviD 73

Аудио
Идентификатор : 1
Формат : AC-3
Формат/Информация : Audio Coding 3
Расширение режима : CM (complete main)
Параметр Endianness формата : Big
Идентификатор кодека : 2000
Продолжительность : 1 ч. 29 м.
Вид битрейта : Постоянный
Битрейт : 192 Кбит/сек
Каналы : 2 канала
Расположение каналов : Front: L R
Частота : 48,0 КГц
Битовая глубина : 16 бит
Метод сжатия : С потерями
Размер потока : 123 Мбайт (8%)
Выравнивание : Разделение по промежуткам
Продолжительность промежутка : 40 мс. (1,00 видеокадр)
Время предзагрузки промежутка : 500 мс.





   Похожие торренты   Торрент   Размер 
В этой теме нет новых непрочитанных сообщений. Испанец (2012) DVDRip-AVC от New-Team | лицензия

494 | 56

1.45 ГБ

В этой теме нет новых непрочитанных сообщений. Испанец (2012) DVDRip от New-Team | лицензия

353 | 75

746.64 МБ

В этой теме нет новых непрочитанных сообщений. Испанец (2012) DVD5 от New-Team | Лицензия

58 | 27

4.14 ГБ

В этой теме нет новых непрочитанных сообщений. Шопинг-тур (2012) DVDRip от New-Team | лицензия

43 | 16

746.03 МБ

В этой теме нет новых непрочитанных сообщений. Шопинг-тур (2012) DVDRip от New-Team | лицензия

106 | 36

1.34 ГБ

В этой теме нет новых непрочитанных сообщений. Три товарища [01-04 из 04] (2012) DVDRip от New-Team | лицензия

171 | 3

3.14 ГБ

В этой теме нет новых непрочитанных сообщений. Шопинг-тур (2012) DVDRip-AVC от New-Team | лицензия

30 | 24

1.38 ГБ




Вы не можете начинать темы
Вы не можете отвечать на сообщения
Вы не можете редактировать свои сообщения
Вы не можете удалять свои сообщения
Вы не можете добавлять вложения

Перейти:  
Для Мосгорсуда, Роскомнадзора и рекламодателей: mosgorsud-torrent[собачка]yandex.ru
 Вход
ppkBB3cker v.2 © 2008-2014 @ PPK
[ Time : 0.040s | 16 Queries | GZIP : On ]

Торрент трекер RUTOR.IN, Не можете зайти на rutor.org? Какой новый адрес рутор? Какое зеркало рутор? Не работает rutor.org и зеркала? Тогда наш торрент специально для вас. Rutor.in неофициальное зеркало rutor. В случае если у Вас заблокирован rutor или вдруг Вы не можете на него зайти, то Вы без труда сможете скачать бесплатно и без рекламы последние новинки кино, игр, сериалов и прочего у нас, на Rutor.in. Не нужно использовать прокси, чтобы зайти на рутор, достаточно воспользоваться нашим ресурсом. Все новые фильмы, игры, сериалы, книги и музыка за 2013 и 2014 годы через торрент бесплатно. Скачивайте фильмы в хорошем качестве, игры для пк, xbox, playstation без регистрации. У нас вы найдете новые Зарубежные сериалы и Русские сериалы 2013, 2014, 2015 годов. Оставайтесь с нами, качайте любимые фильмы, игры, сериалы, книги и музыку.