img image001 image001 image001 image001 image001 image001 image001 image001 image001 image001 image001 image001 image001 image001 image001

Planets Sun Sun Sun
Статистика раздачи
Автор: Nickolas3434 | Размер: 5.57 ГБ | Добавлен: 05 авг 2014
Раздают: 18    Качают: 15
Скачать торрент
Скачать торрент
Описание торрента

СообщениеДобавлено: 05 авг 2014 

Информация о фильме
Название: Первая любовь
Год выхода: 2009
Жанр: Комедия, мелодрама, мюзикл
Режиссер: Егор Дружинин
В ролях: Юлия Савичева, Илзе Лиепа, Дмитрий Бурукин, Юрий Чернов, Александр Крылов, Игорь Балалаев, Сергей Зарубин, Дмитрий Адамович, Илья Глинников, Ольга Карпухова

О фильме:
Дом культуры, где Таня занимается танцами, собираются перестраивать под развлекательный комплекс, и скоро ей негде будет репетировать. В ночном клубе она случайно знакомится с Сашей, сыном владельца ДК, и постепенно он тоже увлекается танцами. Чтобы отец Саши понял, насколько для них важны танцы, музыка и творчество, ребята придумывают и ставят целое танцевальное шоу…



Страна: Россия
Студия: СТС, Монументал пикчерз
Продолжительность: 01:28:07
Перевод: Не требуется

Файл
Кодек: MPEG-2
Качество: DVD-9
Видео: MPEG-2, PAL, 720x576 (16:9), 6712 Кбит/с, VBR, 25 кадр/с
Звук: Русский, Dolby AC3, 48000 Гц, 384 Кбит/с, 6 каналов (5.1)
Субтитры: Нет
Меню: Статичное, русское, озвученное

Дополнительно: Фильм о фильме; Танцевальный номер, не вошедший в фильм; Фотографии со съёмочной площадки

Title: Pervaja.ljubov.2009.DVD9
Size: 5.57 Gb ( 5 840 078,00 KBytes ) - DVD-9
Enabled regions: 1, 2, 3, 4, 5, 6, 7, 8

VTS_01 :
Play Length: 01:28:07
Video: PAL 16:9 (720x576) VBR, Auto Letterboxed
Audio:
Russian (Dolby AC3, 6 ch)

VTS_02 :
Play Length: 00:24:08+00:00:00+00:01:41+{00:00:00}
Video: PAL 4:3 (720x576) VBR
Audio:
Russian (Dolby AC3, 2 ch)

* Menus Information *

VIDEO_TS Menu
Video:
PAL 16:9 (720x576) VBR
Auto Letterboxed
Russian Language Unit :
Title Menu

VTS_01 Menu
Video:
PAL 16:9 (720x576) VBR
Auto Letterboxed
Audio:
Not specified (Dolby AC3, 2 ch)
Russian Language Unit :
Root Menu
Chapter (PTT) Menu

VTS_02 Menu
Video:
NTSC 4:3 (720x480) VBR
Auto Pan&Scan, Auto Letterboxed
Russian Language Unit :
Root Menu
General
Complete name : VTS_01_1.VOB
Format : MPEG-PS
File size : 1 024 MiB
Duration : 19mn 46s
Overall bit rate : 7 240 Kbps

Video
ID : 224 (0xE0)
Format : MPEG Video
Format version : Version 2
Format profile : Main@Main
Format settings, BVOP : Yes
Format settings, Matrix : Default
Duration : 19mn 46s
Bit rate mode : Variable
Bit rate : 6 712 Kbps
Nominal bit rate : 8 500 Kbps
Width : 720 pixels
Height : 576 pixels
Display aspect ratio : 16:9
Frame rate : 25.000 fps
Standard : PAL
Color space : YUV
Chroma subsampling : 4:2:0
Bit depth : 8 bits
Scan type : Interlaced
Scan order : Top Field First
Compression mode : Lossy
Bits/(Pixel*Frame) : 0.647
Stream size : 949 MiB (93%)

Audio
ID : 189 (0xBD)-128 (0x80)
Format : AC-3
Format/Info : Audio Coding 3
Mode extension : CM (complete main)
Muxing mode : DVD-Video
Duration : 19mn 46s
Bit rate mode : Constant
Bit rate : 384 Kbps
Channel(s) : 6 channels
Channel positions : Front: L C R, Side: L R, LFE
Sampling rate : 48.0 KHz
Bit depth : 16 bits
Compression mode : Lossy
Stream size : 54.3 MiB (5%)

Menu





   Похожие торренты   Торрент   Размер 
В этой теме нет новых непрочитанных сообщений. Первая любовь (2009) DVDRip

29 | 3

1.37 ГБ

В этой теме нет новых непрочитанных сообщений. Первая любовь (2009) DVDRip от ivandubskoj

57 | 16

1.46 ГБ

В этой теме нет новых непрочитанных сообщений. Мисс популярность. Первая любовь / My Boyfriend (2009) PC | Лицезия

30 | 7

1.09 ГБ

В этой теме нет новых непрочитанных сообщений. Первая любовь [21-22 из 60] (2013) DVB от Files-x

3 | 7

2.29 ГБ

В этой теме нет новых непрочитанных сообщений. Первая любовь [41-42 из 60] (2013) DVB от Files-x

3 | 1

4.81 ГБ

В этой теме нет новых непрочитанных сообщений. Первая любовь [21-22 из 60] (2013) DVB от Files-x

3 | 1

4.77 ГБ

В этой теме нет новых непрочитанных сообщений. Первая любовь [41-42 из 60] (2013) DVB от Files-x

2 | 4

7.29 ГБ




Вы не можете начинать темы
Вы не можете отвечать на сообщения
Вы не можете редактировать свои сообщения
Вы не можете удалять свои сообщения
Вы не можете добавлять вложения

Перейти:  
Для Мосгорсуда, Роскомнадзора и рекламодателей: mosgorsud-torrent[собачка]yandex.ru
 Вход
ppkBB3cker v.2 © 2008-2014 @ PPK
[ Time : 0.056s | 16 Queries | GZIP : Off ]

Торрент трекер RUTOR.IN, Не можете зайти на rutor.org? Какой новый адрес рутор? Какое зеркало рутор? Не работает rutor.org и зеркала? Тогда наш торрент специально для вас. Rutor.in неофициальное зеркало rutor. В случае если у Вас заблокирован rutor или вдруг Вы не можете на него зайти, то Вы без труда сможете скачать бесплатно и без рекламы последние новинки кино, игр, сериалов и прочего у нас, на Rutor.in. Не нужно использовать прокси, чтобы зайти на рутор, достаточно воспользоваться нашим ресурсом. Все новые фильмы, игры, сериалы, книги и музыка за 2013 и 2014 годы через торрент бесплатно. Скачивайте фильмы в хорошем качестве, игры для пк, xbox, playstation без регистрации. У нас вы найдете новые Зарубежные сериалы и Русские сериалы 2013, 2014, 2015 годов. Оставайтесь с нами, качайте любимые фильмы, игры, сериалы, книги и музыку.