img image001 image001 image001 image001 image001 image001 image001 image001 image001 image001 image001 image001 image001 image001 image001

Planets Sun Sun Sun
Статистика раздачи
Автор: Nickolas3434 | Размер: 744.84 МБ | Добавлен: 07 авг 2014
Раздают: 355    Качают: 50
Скачать торрент
Скачать торрент
Описание торрента

СообщениеДобавлено: 07 авг 2014 

Информация о фильме
Название: Алмаз в шоколаде
Год выхода: 2013
Жанр: Комедия, приключения, криминал
Режиссёр: Артур Богатов
В ролях: Иван Стебунов, Екатерина Олькина, Иван Руденко, Александр Касаткин, Александр Ким, Сергей Никоненко, Станислав Любшин, Юлия Такшина, Александр Робак

О фильме: Известный шоу-мен Дмитрий Савичев в новогоднюю ночь должен вести праздничный вечер в одном из престижных московских клубов. Но по дороге в клуб Савичев по воле случая становится эпицентром нешуточных событий. Прижатые критическими обстоятельствами преступники бросают в его дедморозовский мешок шоколадный набор, в котором находятся алмазы стоимостью пять миллионов долларов. Это даёт возможность преступникам избежать ареста, но на Деда Мороза тут же начинается охота. Следящие за преступниками опера используют Савичева в качестве живца.



Выпущено: Мостелефильм, Россия
Продолжительность: 01:31:08
Перевод: Не требуется

Файл
Качество: SATRip
Видео: XviD, 656x368 (16:9), 1005 Кбит/с, 25 кадр/с
Аудио: Русский, MP3, 48000 Гц, 128 Кбит/с, 2 канала (Стерео)
Субтитры: Нет



General
Complete name : Almaz.v.shokolade.SATRip.745MB.avi
Format : AVI
Format/Info : Audio Video Interleave
File size : 745 MiB
Duration : 1h 31mn
Overall bit rate : 1 143 Kbps
Writing application : VirtualDubMod 1.5.10.3 (build 2550/release)
Writing library : VirtualDubMod build 2550/release

Video
ID : 0
Format : MPEG-4 Visual
Format profile : Advanced Simple@L5
Format settings, BVOP : 2
Format settings, QPel : No
Format settings, GMC : No warppoints
Format settings, Matrix : Custom
Codec ID : XVID
Codec ID/Hint : XviD
Duration : 1h 31mn
Bit rate : 1 005 Kbps
Width : 656 pixels
Height : 368 pixels
Display aspect ratio : 16:9
Frame rate : 25.000 fps
Color space : YUV
Chroma subsampling : 4:2:0
Bit depth : 8 bits
Scan type : Progressive
Compression mode : Lossy
Bits/(Pixel*Frame) : 0.166
Stream size : 655 MiB (88%)
Writing library : XviD 73

Audio
ID : 1
Format : MPEG Audio
Format version : Version 1
Format profile : Layer 3
Codec ID : 55
Codec ID/Hint : MP3
Duration : 1h 31mn
Bit rate mode : Constant
Bit rate : 128 Kbps
Channel(s) : 2 channels
Sampling rate : 48.0 KHz
Compression mode : Lossy
Stream size : 83.4 MiB (11%)
Alignment : Aligned on interleaves
Interleave, duration : 40 ms (1.00 video frame)
Interleave, preload duration : 504 ms
Writing library : LAME3.99r
Encoding settings : -m s -V 4 -q 0 -lowpass 17 -b 128



Автор рипа - ivandubskoj



   Похожие торренты   Торрент   Размер 
В этой теме нет новых непрочитанных сообщений. Алмаз в шоколаде (2013) SATRip

46 | 5

1.37 ГБ

В этой теме нет новых непрочитанных сообщений. Алмаз в шоколаде (2013) SATRip от SANNYa

14 | 4

1.46 ГБ

В этой теме нет новых непрочитанных сообщений. Алмаз в шоколаде (2013) HDTVRip-AVC от Files-x

472 | 28

1.37 ГБ

В этой теме нет новых непрочитанных сообщений. Алмаз в шоколаде (2013) HDTVRip от Files-x

716 | 27

1.37 ГБ

В этой теме нет новых непрочитанных сообщений. Зефир в шоколаде (1993) SATRip

77 | 30

710.77 МБ

В этой теме нет новых непрочитанных сообщений. Пусть говорят. Ксения Собчак: 30 лет в шоколаде [эфир от 16.11] (2011) SATRip от RiperAM

0 | 1

632.25 МБ

В этой теме нет новых непрочитанных сообщений. Совсем не простая история (2013) SATRip от ivandubskoj

117 | 5

745.93 МБ




Вы не можете начинать темы
Вы не можете отвечать на сообщения
Вы не можете редактировать свои сообщения
Вы не можете удалять свои сообщения
Вы не можете добавлять вложения

Перейти:  
Для Мосгорсуда, Роскомнадзора и рекламодателей: mosgorsud-torrent[собачка]yandex.ru
 Вход
ppkBB3cker v.2 © 2008-2014 @ PPK
[ Time : 0.042s | 15 Queries | GZIP : Off ]

Торрент трекер RUTOR.IN, Не можете зайти на rutor.org? Какой новый адрес рутор? Какое зеркало рутор? Не работает rutor.org и зеркала? Тогда наш торрент специально для вас. Rutor.in неофициальное зеркало rutor. В случае если у Вас заблокирован rutor или вдруг Вы не можете на него зайти, то Вы без труда сможете скачать бесплатно и без рекламы последние новинки кино, игр, сериалов и прочего у нас, на Rutor.in. Не нужно использовать прокси, чтобы зайти на рутор, достаточно воспользоваться нашим ресурсом. Все новые фильмы, игры, сериалы, книги и музыка за 2013 и 2014 годы через торрент бесплатно. Скачивайте фильмы в хорошем качестве, игры для пк, xbox, playstation без регистрации. У нас вы найдете новые Зарубежные сериалы и Русские сериалы 2013, 2014, 2015 годов. Оставайтесь с нами, качайте любимые фильмы, игры, сериалы, книги и музыку.