img image001 image001 image001 image001 image001 image001 image001 image001 image001 image001 image001 image001 image001 image001 image001

Planets Sun Sun Sun
Статистика раздачи
Автор: Nickolas3434 | Размер: 1.46 ГБ | Добавлен: 07 авг 2014
Раздают: 196    Качают: 18
Скачать торрент
Скачать торрент
Описание торрента

СообщениеДобавлено: 07 авг 2014 

Информация о фильме
Название: Мужчина в моей голове
Год выхода: 2009
Режиссер: Алексей Пиманов
В ролях: Ольга Погодина, Алексей Серебряков, Андрей Чернышов, Ольга Медынич, Вася Брыков, Игорь Угольников, Александр Жулин, Андрей Державин, Игорь Верник, Анна Якунина, Егор Баринов, Александр Макогон, Людмила Гаврилова, Вахтанг Беридзе, Александра Живова, Олег Пышненко

О фильме:
Под Новый год в голове обаятельной хозяйки книжного магазина Алены невероятным образом появился "внутренний мужской голос". Всю предновогоднюю неделю она с помощью "мужчины в ее голове" справлялась со сложными жизненными ситуациями, находя неординарные решения, и уже не представляла, как может обходиться без него. Но "мужчина в ее голове исчез" неожиданно исчез. Алена в панике...



Страна: Россия
Студия: Ода-Фильм
Продолжительность: 01:56:26
Перевод: Не требуется

Файл
Кодек: XviD
Качество: DVDRip
Видео: XviD, 704x400 (16:9), 25 кадр/с, 1599 Кбит/с
Звук: Русский, Dolby AC3, 48000 Гц, 192 Кбит/с, 2 канала (Стерео)
Субтитры: Нет



General
Complete name : Muzchina.v.moey.golove.2009.DVDRip.avi
Format : AVI
Format/Info : Audio Video Interleave
File size : 1.46 GiB
Duration : 1h 56mn
Overall bit rate : 1 799 Kbps
Movie name : Мужчина в моей голове (2009) DVDRip
Genre : Комедия, мелодрама, фэнтези
Recorded date : 06.08.2014
Writing application : VirtualDubMod 1.5.10.3 (build 2550/release)
Writing library : VirtualDubMod build 2550/release
Copyright : rip by ivandubskoj

Video
ID : 0
Format : MPEG-4 Visual
Format profile : Advanced Simple@L5
Format settings, BVOP : 1
Format settings, QPel : No
Format settings, GMC : No warppoints
Format settings, Matrix : Custom
Codec ID : XVID
Codec ID/Hint : XviD
Duration : 1h 56mn
Bit rate : 1 599 Kbps
Width : 704 pixels
Height : 400 pixels
Display aspect ratio : 16:9
Frame rate : 25.000 fps
Color space : YUV
Chroma subsampling : 4:2:0
Bit depth : 8 bits
Scan type : Progressive
Compression mode : Lossy
Bits/(Pixel*Frame) : 0.227
Stream size : 1.30 GiB (89%)
Writing library : XviD 73

Audio
ID : 1
Format : AC-3
Format/Info : Audio Coding 3
Mode extension : CM (complete main)
Codec ID : 2000
Duration : 1h 56mn
Bit rate mode : Constant
Bit rate : 192 Kbps
Channel(s) : 2 channels
Channel positions : Front: L R
Sampling rate : 48.0 KHz
Bit depth : 16 bits
Compression mode : Lossy
Stream size : 160 MiB (11%)
Alignment : Split accross interleaves
Interleave, duration : 64 ms (1.60 video frames)
Interleave, preload duration : 500 ms
Title : Russian



Автор рипа - ivandubskoj



   Похожие торренты   Торрент   Размер 
В этой теме нет новых непрочитанных сообщений. Мужчина в моей голове (2009) DVDRip

351 | 16

1.36 ГБ

В этой теме нет новых непрочитанных сообщений. Мужчина в моей голове (2009) DVDRip

82 | 29

749.71 МБ

В этой теме нет новых непрочитанных сообщений. Мужчина в моей голове (2009) DVDRip от AndrewWhite

16 | 6

1.37 ГБ

В этой теме нет новых непрочитанных сообщений. Мужчина в моей голове (2009) SATRip

47 | 15

1.24 ГБ

В этой теме нет новых непрочитанных сообщений. Она - мужчина / She's the Man (2006) DVDRip от ivandubskoj | D

84 | 6

1.46 ГБ

В этой теме нет новых непрочитанных сообщений. Она - мужчина / She's the Man (2006) DVDRip от ivandubskoj | D

48 | 8

2.19 ГБ

В этой теме нет новых непрочитанных сообщений. Ты будешь моей (2013) HDTVRip от ivandubskoj

284 | 16

1.46 ГБ




Вы не можете начинать темы
Вы не можете отвечать на сообщения
Вы не можете редактировать свои сообщения
Вы не можете удалять свои сообщения
Вы не можете добавлять вложения

Перейти:  
Для Мосгорсуда, Роскомнадзора и рекламодателей: mosgorsud-torrent[собачка]yandex.ru
 Вход
ppkBB3cker v.2 © 2008-2014 @ PPK
[ Time : 0.022s | 17 Queries | GZIP : On ]

Торрент трекер RUTOR.IN, Не можете зайти на rutor.org? Какой новый адрес рутор? Какое зеркало рутор? Не работает rutor.org и зеркала? Тогда наш торрент специально для вас. Rutor.in неофициальное зеркало rutor. В случае если у Вас заблокирован rutor или вдруг Вы не можете на него зайти, то Вы без труда сможете скачать бесплатно и без рекламы последние новинки кино, игр, сериалов и прочего у нас, на Rutor.in. Не нужно использовать прокси, чтобы зайти на рутор, достаточно воспользоваться нашим ресурсом. Все новые фильмы, игры, сериалы, книги и музыка за 2013 и 2014 годы через торрент бесплатно. Скачивайте фильмы в хорошем качестве, игры для пк, xbox, playstation без регистрации. У нас вы найдете новые Зарубежные сериалы и Русские сериалы 2013, 2014, 2015 годов. Оставайтесь с нами, качайте любимые фильмы, игры, сериалы, книги и музыку.