img image001 image001 image001 image001 image001 image001 image001 image001 image001 image001 image001 image001 image001 image001 image001

Planets Sun Sun Sun
Статистика раздачи
Автор: Nickolas3434 | Размер: 2.34 ГБ | Добавлен: 08 авг 2014
Раздают: 936    Качают: 19
Скачать торрент
Скачать торрент
Описание торрента

СообщениеДобавлено: 08 авг 2014 

«Чемпион чемпионов»

Год выпуска: 2014
Производство: Россия / Канал Россия, Красная стрела, Студия Тритэ
Жанр: Драма, спорт, биография
Перевод: Не требуется (русский) [iTunes]
Субтитры: Отсутствуют
Режиссер: Глеб Орлов
Продюсеры: Вадим Горяинов, Леонид Верещагин, Леонид Лебедев
Актеры: Михаил Пореченков, Дени Лаван, Владимир Ильин, Юрий Колокольников, Роман Мадянов, Александр Михайлов, Катерина Шпица, Максим Сапрыкин, Петр Крылов, Андрей Дебрин
Описание фильма:
Его называли Чемпион чемпионов. О силе и волевом характере Поддубного слагали легенды. И в 50 великий борец играючи одолевал молодых атлетов, а вопросах чести и справедливости не знал компромиссов. И лишь любовь смогла уложить Русского Богатыря на обе лопатки…

Дата мировой премьеры: 10 июля 2014
Дата российской премьеры: 10 июля 2014, «Централ Партнершип»
Дата выхода DVD/Blu-Ray релиза: 26 августа 2014, «Lizard Cinema Trade»

Продолжительность: 02:02:37
Качество видео: WEB-DLRip
Видеокодек: MPEG-4 AVC/H.264
Битрейт видео: 2350 Кбит/сек
Размер кадра: 1024x432
Аудиокодек: AC3 5.1
Битрейт аудио: 384 Кбит/сек
Общее
Уникальный идентификатор : 225938183962189157897012138258609796976 (0xA9FA1C8530C247F199EE7FFD0B24F770)
Полное имя : D:ВидеоПоддубный (2014) WEB-DLRip [H.264].mkv
Формат : Matroska
Версия формата : Version 2
Размер файла : 2,34 Гбайт
Продолжительность : 2 ч. 2 м.
Общий поток : 2735 Кбит/сек
Название фильма : Poddubniy.2014.WEB-DLRip.NNM-CLUB
Дата кодирования : UTC 2014-08-07 05:59:06
Программа кодирования : mkvmerge v4.9.1 ('Ich will') сборка от Jul 11 2011 23:53:15
Библиотека кодирования : libebml v1.2.1 + libmatroska v1.1.1
Видео
Идентификатор : 1
Формат : AVC
Формат/Информация : Advanced Video Codec
Профиль формата : High@L4.1
Параметр CABAC формата : Да
Параметр ReFrames формата : 10 кадров
Идентификатор кодека : V_MPEG4/ISO/AVC
Продолжительность : 2 ч. 2 м.
Битрейт : 2350 Кбит/сек
Ширина : 1024 пикселя
Высота : 432 пикселя
Соотношение сторон : 2,40:1
Режим частоты кадров : Постоянный
Частота кадров : 24,000 кадра/сек
Цветовое пространство : YUV
Субдискретизация насыщенности : 4:2:0
Битовая глубина : 8 бит
Тип развёртки : Прогрессивная
Бит/(Пиксели*Кадры) : 0.221
Размер потока : 1,97 Гбайт (84%)
Библиотека кодирования : x264 core 130 r2273 b3065e6
Настройки программы : cabac=1 / ref=10 / deblock=1:-1:-2 / analyse=0x3:0x133 / me=umh / subme=11 / psy=1 / psy_rd=1.00:0.10 / mixed_ref=1 / me_range=32 / chroma_me=1 / trellis=2 / 8x8dct=1 / cqm=0 / deadzone=21,11 / fast_pskip=0 / chroma_qp_offset=-3 / threads=6 / lookahead_threads=1 / sliced_threads=0 / nr=0 / decimate=1 / interlaced=0 / bluray_compat=0 / constrained_intra=0 / bframes=3 / b_pyramid=2 / b_adapt=2 / b_bias=0 / direct=3 / weightb=1 / open_gop=0 / weightp=2 / keyint=240 / keyint_min=23 / scenecut=40 / intra_refresh=0 / rc_lookahead=50 / rc=2pass / mbtree=1 / bitrate=2350 / ratetol=1.0 / qcomp=0.60 / qpmin=0 / qpmax=69 / qpstep=4 / cplxblur=20.0 / qblur=0.5 / ip_ratio=1.40 / aq=1:1.00
Default : Да
Forced : Нет
Аудио
Идентификатор : 2
Формат : AC-3
Формат/Информация : Audio Coding 3
Расширение режима : CM (complete main)
Параметр Endianness формата : Big
Идентификатор кодека : A_AC3
Продолжительность : 2 ч. 2 м.
Вид битрейта : Постоянный
Битрейт : 384 Кбит/сек
Каналы : 6 каналов
Расположение каналов : Front: L C R, Side: L R, LFE
Частота : 48,0 КГц
Битовая глубина : 16 бит
Метод сжатия : С потерями
Размер потока : 337 Мбайт (14%)
Default : Да
Forced : Нет
Меню
00:00:00.000 : en:Глава 1
00:04:57.000 : en:Глава 2
00:07:26.000 : en:Глава 3
00:11:40.000 : en:Глава 4
00:18:55.000 : en:Глава 5
00:23:09.000 : en:Глава 6
00:29:09.000 : en:Глава 7
00:35:19.000 : en:Глава 8
00:41:52.000 : en:Глава 9
00:48:36.000 : en:Глава 10
00:55:44.000 : en:Глава 11
01:00:12.000 : en:Глава 12
01:07:12.000 : en:Глава 13
01:10:44.000 : en:Глава 14
01:15:03.000 : en:Глава 15
01:22:49.000 : en:Глава 16
01:28:36.000 : en:Глава 17
01:35:12.000 : en:Глава 18
01:39:49.000 : en:Глава 19
01:45:31.000 : en:Глава 20
01:51:33.000 : en:Глава 21
01:55:36.000 : en:Глава 22
Скриншоты:



   Похожие торренты   Торрент   Размер 
В этой теме нет новых непрочитанных сообщений. Поддубный (2014) WEB-DLRip

2705 | 40

2.05 ГБ

В этой теме нет новых непрочитанных сообщений. Поддубный (2014) WEB-DLRip

12793 | 534

1.37 ГБ

В этой теме нет новых непрочитанных сообщений. Поддубный (2014) WEB-DLRip

1087 | 36

749.89 МБ

В этой теме нет новых непрочитанных сообщений. Поддубный (2014) WEB-DLRip от Scarabey

1111 | 199

2.18 ГБ

В этой теме нет новых непрочитанных сообщений. Поддубный (2014) WEB-DLRip от Scarabey | iTunes

2718 | 439

1.45 ГБ

В этой теме нет новых непрочитанных сообщений. Поддубный (2014) WEB-DLRip от ImperiaFilm | КПК | iTunes

331 | 15

419.15 МБ

В этой теме нет новых непрочитанных сообщений. Поддубный (2014) WEB-DLRip от Scarabey | iTunes

1037 | 114

797.48 МБ




Вы не можете начинать темы
Вы не можете отвечать на сообщения
Вы не можете редактировать свои сообщения
Вы не можете удалять свои сообщения
Вы не можете добавлять вложения

Перейти:  
Для Мосгорсуда, Роскомнадзора и рекламодателей: mosgorsud-torrent[собачка]yandex.ru
 Вход
ppkBB3cker v.2 © 2008-2014 @ PPK
[ Time : 0.024s | 16 Queries | GZIP : Off ]

cron