img image001 image001 image001 image001 image001 image001 image001 image001 image001 image001 image001 image001 image001 image001 image001

Planets Sun Sun Sun
Статистика раздачи
Автор: Nickolas3434 | Размер: 1.46 ГБ | Добавлен: 09 авг 2014
Раздают: 184    Качают: 43
Скачать торрент
Скачать торрент
Описание торрента

СообщениеДобавлено: 09 авг 2014 

Информация о фильме
Название: Разрешите тебя поцеловать... снова
Год выхода: 2012
Жанр: Мелодрама, комедия
Режиссёр: Юрий Морозов
В ролях: Мария Куликова, Игорь Лифанов, Борис Щербаков, Алёна Корнева, Анастасия Красильникова
О фильме:
Прошло время, и в семье майора Григория Власова и прапорщика Натальи Киселевой наметился разлад. В воинскую часть, где служат супруги, приезжает новенькая медсестра - эффектная блондинка Марина Королькова. Ей нравится Власов, и она пытается его соблазнить. Григорий смущен, Наталья в бешенстве. А дочка Власова, Муха, объявляет Корольковой войну. Взрослые ссорятся, а Муха делает все возможное, чтобы помирить родителей...

Выпущено: ООО «Экшн Арт», Россия
Продолжительность: 01:45:36
Перевод: Не требуется
Файл
Кодек: XviD
Качество: DVDRip [Исходник: DVD-5]
Видео: XviD, 688x384 (16:9), 1785 Кбит/с, 25 кадр/с
Аудио: Русский, Dolby AC3, 48000 Гц, 192 Кбит/с, 2 канала (Стерео)
Субтитры: Нет

General
Complete name : Razreshite.tebya.potselovat'.snova.2012.DVDRip.avi
Format : AVI
Format/Info : Audio Video Interleave
File size : 1.46 GiB
Duration : 1h 45mn
Overall bit rate : 1 984 Kbps
Movie name : Разрешите тебя поцеловать... снова (2012) DVDRip
Genre : Мелодрама, комедия
Recorded date : 07.08.2014
Writing application : VirtualDubMod 1.5.10.3 (build 2550/release)
Writing library : VirtualDubMod build 2550/release
Copyright : rip by ivandubskoj
Video
ID : 0
Format : MPEG-4 Visual
Format profile : Advanced Simple@L5
Format settings, BVOP : 1
Format settings, QPel : No
Format settings, GMC : No warppoints
Format settings, Matrix : Custom
Codec ID : XVID
Codec ID/Hint : XviD
Duration : 1h 45mn
Bit rate : 1 784 Kbps
Width : 688 pixels
Height : 384 pixels
Display aspect ratio : 16:9
Frame rate : 25.000 fps
Color space : YUV
Chroma subsampling : 4:2:0
Bit depth : 8 bits
Scan type : Progressive
Compression mode : Lossy
Bits/(Pixel*Frame) : 0.270
Stream size : 1.32 GiB (90%)
Writing library : XviD 73
Audio
ID : 1
Format : AC-3
Format/Info : Audio Coding 3
Mode extension : CM (complete main)
Codec ID : 2000
Duration : 1h 45mn
Bit rate mode : Constant
Bit rate : 192 Kbps
Channel(s) : 2 channels
Channel positions : Front: L R
Sampling rate : 48.0 KHz
Bit depth : 16 bits
Compression mode : Lossy
Stream size : 145 MiB (10%)
Alignment : Split accross interleaves
Interleave, duration : 64 ms (1.60 video frames)
Interleave, preload duration : 500 ms
Title : Russian


Автор рипа - ivandubskoj



   Похожие торренты   Торрент   Размер 
В этой теме нет новых непрочитанных сообщений. Разрешите тебя поцеловать... снова (2012) DVDRip | Лицензия

30 | 5

696.18 МБ

В этой теме нет новых непрочитанных сообщений. Разрешите тебя поцеловать... снова (2012) DVDRip | Лицензия

76 | 16

1.37 ГБ

В этой теме нет новых непрочитанных сообщений. Разрешите тебя поцеловать... снова (2012) DVD5

4 | 3

4.36 ГБ

В этой теме нет новых непрочитанных сообщений. Разрешите тебя поцеловать… отец невесты (2014) WEB-DLRip от ivandubskoj

329 | 18

1.46 ГБ

В этой теме нет новых непрочитанных сообщений. Разрешите тебя поцеловать… отец невесты (2014) WEB-DLRip от ivandubskoj

244 | 23

744.89 МБ

В этой теме нет новых непрочитанных сообщений. Разрешите тебя поцеловать (2008) DVDRip от Киномагия

346 | 23

1.37 ГБ

В этой теме нет новых непрочитанных сообщений. Разрешите тебя поцеловать... на свадьбе (2013) DVDRip | Лицензия

1144 | 384

1.37 ГБ




Вы не можете начинать темы
Вы не можете отвечать на сообщения
Вы не можете редактировать свои сообщения
Вы не можете удалять свои сообщения
Вы не можете добавлять вложения

Перейти:  
Для Мосгорсуда, Роскомнадзора и рекламодателей: mosgorsud-torrent[собачка]yandex.ru
 Вход
ppkBB3cker v.2 © 2008-2014 @ PPK
[ Time : 0.027s | 15 Queries | GZIP : On ]

Торрент трекер RUTOR.IN, Не можете зайти на rutor.org? Какой новый адрес рутор? Какое зеркало рутор? Не работает rutor.org и зеркала? Тогда наш торрент специально для вас. Rutor.in неофициальное зеркало rutor. В случае если у Вас заблокирован rutor или вдруг Вы не можете на него зайти, то Вы без труда сможете скачать бесплатно и без рекламы последние новинки кино, игр, сериалов и прочего у нас, на Rutor.in. Не нужно использовать прокси, чтобы зайти на рутор, достаточно воспользоваться нашим ресурсом. Все новые фильмы, игры, сериалы, книги и музыка за 2013 и 2014 годы через торрент бесплатно. Скачивайте фильмы в хорошем качестве, игры для пк, xbox, playstation без регистрации. У нас вы найдете новые Зарубежные сериалы и Русские сериалы 2013, 2014, 2015 годов. Оставайтесь с нами, качайте любимые фильмы, игры, сериалы, книги и музыку.