img image001 image001 image001 image001 image001 image001 image001 image001 image001 image001 image001 image001 image001 image001 image001

Planets Sun Sun Sun
Статистика раздачи
Автор: Nickolas3434 | Размер: 1.46 ГБ | Добавлен: 09 авг 2014
Раздают: 232    Качают: 76
Скачать торрент
Скачать торрент
Описание торрента

СообщениеДобавлено: 09 авг 2014 

Информация о фильме
Название: Подарок с характером
Оригинальное название: Оригинальное название (для иностранных фильмов)
Год выхода: 2014
Жанр: семейный, приключения, комедия
Режиссер: Карен Оганесян
В ролях: Михаил Галустян, Артем Фадеев, Фёдор Бондарчук, Екатерина Климова, Николай Валуев, Ирина Безрукова, Катерина Шпица, Алексей Макаров, Константин Юшкевич, Инга Стрелкова-Оболдина...
О фильме:
Быть пандой весело! Но не Мише, который вынужден работать в костюме панды на детских праздниках. Ему тридцать лет, он живет в крохотной однушке на окраине Москвы, и у него нет серьезной работы. Все было так, пока его не позвали на день рождения к сыну олигарха. Артему девять лет, и у него есть тайный план, помочь осуществить который может только Миша. Мальчик и панда отправляются в путешествие через всю страну, то и дело вляпываясь в невероятные ситуации.
Страна: Россия
Продолжительность: 01:28:13
Перевод: Не требуется
Файл
Формат: MKV
Качество: BDRip-AVC
Видео: x.264, 960x520, 1914 Kbps, 24.000 fps
Звук: AC3, 448 kbps, 5.1 ch, 48000 Hz
Субтитры: Нет

Семпл



Format : Matroska
Format version : Version 4 / Version 2
File size : 1.46 GiB
Duration : 1h 28mn
Overall bit rate : 2 363 Kbps
Movie name : Подарок с характером (2014) BDRip-AVC [Color Edit]
Encoded date : UTC 2014-08-09 11:11:25
Writing application : mkvmerge v7.1.0 ('Good Love') 32bit built on Jul 27 2014 12:59:18
Writing library : libebml v1.3.0 + libmatroska v1.4.1
Cover : Yes
Video
ID : 1
Format : AVC
Format/Info : Advanced Video Codec
Format profile : High@L4.1
Format settings, CABAC : Yes
Format settings, ReFrames : 10 frames
Codec ID : V_MPEG4/ISO/AVC
Duration : 1h 28mn
Bit rate : 1 914 Kbps
Width : 960 pixels
Height : 520 pixels
Display aspect ratio : 1.85:1
Frame rate mode : Constant
Frame rate : 24.000 fps
Color space : YUV
Chroma subsampling : 4:2:0
Bit depth : 8 bits
Scan type : Progressive
Bits/(Pixel*Frame) : 0.160
Stream size : 1.15 GiB (79%)
Title : Color edit version
Writing library : x264 core 142 r2453 ea0ca51
Encoding settings : cabac=1 / ref=10 / deblock=1:-2:-1 / analyse=0x3:0x113 / me=umh / subme=10 / psy=1 / psy_rd=1.00:0.00 / mixed_ref=1 / me_range=32 / chroma_me=1 / trellis=2 / 8x8dct=1 / cqm=0 / deadzone=21,11 / fast_pskip=0 / chroma_qp_offset=-2 / threads=6 / lookahead_threads=1 / sliced_threads=0 / nr=0 / decimate=1 / interlaced=0 / bluray_compat=0 / constrained_intra=0 / bframes=10 / b_pyramid=2 / b_adapt=2 / b_bias=0 / direct=3 / weightb=1 / open_gop=0 / weightp=2 / keyint=240 / keyint_min=24 / scenecut=40 / intra_refresh=0 / rc_lookahead=60 / rc=2pass / mbtree=0 / bitrate=1914 / ratetol=1.0 / qcomp=0.60 / qpmin=0 / qpmax=69 / qpstep=4 / cplxblur=20.0 / qblur=0.5 / vbv_maxrate=10000 / vbv_bufsize=12000 / nal_hrd=none / filler=0 / ip_ratio=1.20 / pb_ratio=1.30 / aq=1:1.00
Language : English
Default : Yes
Forced : No
Audio
ID : 2
Format : AC-3
Format/Info : Audio Coding 3
Mode extension : CM (complete main)
Format settings, Endianness : Big
Codec ID : A_AC3
Duration : 1h 28mn
Bit rate mode : Constant
Bit rate : 448 Kbps
Channel(s) : 6 channels
Channel positions : Front: L C R, Side: L R, LFE
Sampling rate : 48.0 KHz
Bit depth : 16 bits
Compression mode : Lossy
Stream size : 283 MiB (19%)
Title : Оригинал
Language : Russian
Default : Yes
Forced : No
Menu
00:00:00.000 : ru:Эпизод 01
00:10:30.750 : ru:Эпизод 02
00:22:23.875 : ru:Эпизод 03
00:30:28.083 : ru:Эпизод 04
00:45:20.541 : ru:Эпизод 05
00:52:54.291 : ru:Эпизод 06
01:05:06.500 : ru:Эпизод 07
01:13:26.083 : ru:Эпизод 08



Проведена цветокоррекция (уменьшена желтизна), сравнение ниже.
Сравнение со схожей по параметрам раздачей.



   Похожие торренты   Торрент   Размер 
В этой теме нет новых непрочитанных сообщений. Подарок с характером (2014) BDRip-AVC

347 | 20

745.56 МБ

В этой теме нет новых непрочитанных сообщений. Подарок с характером (2014) BDRip-AVC от HQCLUB

132 | 7

2.1 ГБ

В этой теме нет новых непрочитанных сообщений. Подарок с характером (2014) BDRip 720p

1022 | 53

2.53 ГБ

В этой теме нет новых непрочитанных сообщений. Подарок с характером (2014) BDRip от ivandubskoj

23 | 22

745.71 МБ

В этой теме нет новых непрочитанных сообщений. Подарок с характером (2014) BDRip-AVC от HELLYWOOD | Лицензия

396 | 20

1.46 ГБ

В этой теме нет новых непрочитанных сообщений. Подарок с характером (2014) BDRip от New-Team | лицензия

4444 | 350

1.46 ГБ

В этой теме нет новых непрочитанных сообщений. Подарок с характером (2014) BDRip 720p от HDClub

108 | 10

4.38 ГБ




Вы не можете начинать темы
Вы не можете отвечать на сообщения
Вы не можете редактировать свои сообщения
Вы не можете удалять свои сообщения
Вы не можете добавлять вложения

Перейти:  
Для Мосгорсуда, Роскомнадзора и рекламодателей: mosgorsud-torrent[собачка]yandex.ru
 Вход
ppkBB3cker v.2 © 2008-2014 @ PPK
[ Time : 0.035s | 16 Queries | GZIP : Off ]

cron