img image001 image001 image001 image001 image001 image001 image001 image001 image001 image001 image001 image001 image001 image001 image001

Planets Sun Sun Sun
Статистика раздачи
Автор: Nickolas3434 | Размер: 6.56 ГБ | Добавлен: 10 авг 2014
Раздают: 1002    Качают: 161
Скачать торрент
Скачать торрент
Описание торрента

СообщениеДобавлено: 10 авг 2014 

Информация о фильме
Оригинальное название: Подарок с характером
Год выпуска: 2014
Жанр: Комедия, приключения, семейный
Режиссер: Карен Оганесян
В ролях: Михаил Галустян, Артём Фадеев, Фёдор Бондарчук, Екатерина Климова, Николай Валуев, Ирина Безрукова, Екатерина Шпица, Алексей Макаров, Константин Юшкевич, Инга Оболдина
Описание: Быть пандой весело! Но не Мише, который вынужден работать в костюме панды на детских праздниках. Ему тридцать лет, он живет в крохотной однушке на окраине Москвы, и у него нет серьезной работы. Все было так, пока его не позвали на день рождения к сыну олигарха. Артему девять лет, и у него есть тайный план, помочь осуществить который может только Миша. Мальчик и панда отправляются в путешествие через всю страну, то и дело вляпываясь в невероятные ситуации.

Выпущено: Россия / Fresh Films
Продолжительность: 01:28:13
Файл
Качество: BDRip 1080p
Видео: MPEG-4 AVC, 8500 Кбит/с, 1920x1036, 24.000 кадр/с
Аудио #1: Русский (AC3, 6 ch, 640 Кбит/с)
Аудио #2: Русский (DTS, 6 ch, 1509 Кбит/с)
Семпл

За предоставленный блюр спасибо avproh
*********************************************************************************************************************
x264 [info]: frame I:1410 Avg QP:15.40 size:214025
x264 [info]: frame P:36341 Avg QP:18.45 size: 78485
x264 [info]: frame B:89287 Avg QP:20.12 size: 27642
x264 [info]: consecutive B-frames: 6.2% 7.1% 16.9% 27.7% 14.4% 24.1% 2.7% 0.3% 0.5%
*********************************************************************************************************************
Общее
Уникальный идентификатор : 195053432182384760449349013973697192060 (0x92BDECB13EEB77C49716542E1542607C)
Полное имя : D:Mои раздачиPodarok.s.harakterom.2014.BDRip.1080p-MediaClub.mkv
Формат : Matroska
Версия формата : Version 4 / Version 2
Размер файла : 6,56 Гбайт
Продолжительность : 1 ч. 28 м.
Общий поток : 10,6 Мбит/сек
Название фильма : -=MediaClub-kaspr=-
Дата кодирования : UTC 2014-08-09 14:13:03
Программа кодирования : mkvmerge v6.9.1 ('Blue Panther') 64bit built on Apr 18 2014 18:23:38
Библиотека кодирования : libebml v1.3.0 + libmatroska v1.4.1
Видео
Идентификатор : 1
Формат : AVC
Формат/Информация : Advanced Video Codec
Профиль формата : High@L4.1
Параметр CABAC формата : Да
Параметр ReFrames формата : 4 кадра
Идентификатор кодека : V_MPEG4/ISO/AVC
Продолжительность : 1 ч. 28 м.
Битрейт : 8500 Кбит/сек
Ширина : 1920 пикселей
Высота : 1036 пикселей
Соотношение сторон : 1,85:1
Режим частоты кадров : Постоянный
Частота кадров : 24,000 кадра/сек
Цветовое пространство : YUV
Субдискретизация насыщенности : 4:2:0
Битовая глубина : 8 бит
Тип развёртки : Прогрессивная
Бит/(Пиксели*Кадры) : 0.178
Размер потока : 5,11 Гбайт (78%)
Заголовок : -=MediaClub-kaspr=-
Библиотека кодирования : x264 core 142 r2431+42 c69a006 tMod [8-bit@4:2:0 X86_64]
Настройки программы : cabac=1 / ref=4 / deblock=1:-3:-3 / analyse=0x3:0x113 / me=umh / subme=11 / psy=1 / fade_compensate=0.00 / psy_rd=1.00:0.20 / mixed_ref=1 / me_range=32 / chroma_me=1 / trellis=2 / 8x8dct=1 / cqm=0 / deadzone=21,11 / fast_pskip=0 / chroma_qp_offset=-3 / threads=12 / lookahead_threads=2 / sliced_threads=0 / nr=0 / decimate=0 / interlaced=0 / bluray_compat=0 / constrained_intra=0 / fgo=0 / bframes=8 / b_pyramid=2 / b_adapt=2 / b_bias=0 / direct=3 / weightb=1 / open_gop=0 / weightp=2 / keyint=240 / keyint_min=24 / scenecut=40 / intra_refresh=0 / rc=2pass / mbtree=0 / bitrate=8500 / ratetol=1.0 / qcomp=0.60 / qpmin=0:0:0 / qpmax=69:69:69 / qpstep=4 / cplxblur=20.0 / qblur=0.5 / ip_ratio=1.40 / pb_ratio=1.30 / aq=4:0.80 / aq-sensitivity=10.00 / aq-factor=1.00:1.00:1.00 / aq2=0 / aq3=0
Default : Да
Forced : Нет
Аудио #1
Идентификатор : 2
Формат : AC-3
Формат/Информация : Audio Coding 3
Расширение режима : CM (complete main)
Параметр Endianness формата : Big
Идентификатор кодека : A_AC3
Продолжительность : 1 ч. 28 м.
Вид битрейта : Постоянный
Битрейт : 640 Кбит/сек
Каналы : 6 каналов
Расположение каналов : Front: L C R, Side: L R, LFE
Частота : 48,0 КГц
Битовая глубина : 16 бит
Метод сжатия : С потерями
Размер потока : 404 Мбайт (6%)
Заголовок : AC3
Язык : Russian
Default : Да
Forced : Нет
Аудио #2
Идентификатор : 3
Формат : DTS
Формат/Информация : Digital Theater Systems
Режим : 16
Параметр Endianness формата : Big
Идентификатор кодека : A_DTS
Продолжительность : 1 ч. 28 м.
Вид битрейта : Постоянный
Битрейт : 1509 Кбит/сек
Каналы : 6 каналов
Расположение каналов : Front: L C R, Side: L R, LFE
Частота : 48,0 КГц
Битовая глубина : 16 бит
Метод сжатия : С потерями
Размер потока : 952 Мбайт (14%)
Заголовок : DTS
Язык : Russian
Default : Нет
Forced : Нет
Меню
00:00:00.000 : en:Chapter 01
00:10:30.750 : en:Chapter 02
00:22:23.875 : en:Chapter 03
00:30:28.083 : en:Chapter 04
00:45:20.541 : en:Chapter 05
00:52:54.291 : en:Chapter 06
01:05:06.500 : en:Chapter 07
01:13:26.083 : en:Chapter 08

Релиз: |



   Похожие торренты   Торрент   Размер 
В этой теме нет новых непрочитанных сообщений. Подарок с характером (2014) Blu-ray 1080p от HDCLUB и New-Team | лицензия

75 | 60

19.7 ГБ

В этой теме нет новых непрочитанных сообщений. Подарок с характером (2014) BDRemux 1080p от New-Team | лицензия

85 | 115

18.62 ГБ

В этой теме нет новых непрочитанных сообщений. Подарок с характером (2014) BDRip-AVC от HELLYWOOD | Лицензия

396 | 20

1.46 ГБ

В этой теме нет новых непрочитанных сообщений. Подарок с характером (2014) BDRip-AVC от New-Team | лицензия

442 | 87

1.46 ГБ

В этой теме нет новых непрочитанных сообщений. Подарок с характером (2014) BDRip от New-Team | лицензия

4444 | 350

1.46 ГБ

В этой теме нет новых непрочитанных сообщений. Подарок с характером (2014) BDRip от HQCLUB | Лицензия

1133 | 53

1.45 ГБ

В этой теме нет новых непрочитанных сообщений. Подарок с характером (2014) BDRip-AVC от HELLYWOOD | Лицензия

402 | 14

2.18 ГБ




Вы не можете начинать темы
Вы не можете отвечать на сообщения
Вы не можете редактировать свои сообщения
Вы не можете удалять свои сообщения
Вы не можете добавлять вложения

Перейти:  
Для Мосгорсуда, Роскомнадзора и рекламодателей: mosgorsud-torrent[собачка]yandex.ru
 Вход
ppkBB3cker v.2 © 2008-2014 @ PPK
[ Time : 0.613s | 16 Queries | GZIP : Off ]

Торрент трекер RUTOR.IN, Не можете зайти на rutor.org? Какой новый адрес рутор? Какое зеркало рутор? Не работает rutor.org и зеркала? Тогда наш торрент специально для вас. Rutor.in неофициальное зеркало rutor. В случае если у Вас заблокирован rutor или вдруг Вы не можете на него зайти, то Вы без труда сможете скачать бесплатно и без рекламы последние новинки кино, игр, сериалов и прочего у нас, на Rutor.in. Не нужно использовать прокси, чтобы зайти на рутор, достаточно воспользоваться нашим ресурсом. Все новые фильмы, игры, сериалы, книги и музыка за 2013 и 2014 годы через торрент бесплатно. Скачивайте фильмы в хорошем качестве, игры для пк, xbox, playstation без регистрации. У нас вы найдете новые Зарубежные сериалы и Русские сериалы 2013, 2014, 2015 годов. Оставайтесь с нами, качайте любимые фильмы, игры, сериалы, книги и музыку.
cron