img image001 image001 image001 image001 image001 image001 image001 image001 image001 image001 image001 image001 image001 image001 image001

Planets Sun Sun Sun
Статистика раздачи
Автор: Nickolas3434 | Размер: 745.71 МБ | Добавлен: 09 авг 2014
Раздают: 23    Качают: 22
Скачать торрент
Скачать торрент
Описание торрента

СообщениеДобавлено: 09 авг 2014 

Информация о фильме
Название: Подарок с характером
Год выхода: 2014
Жанр: Комедия, семейный, приключения
Режиссёр: Карен Оганесян
В ролях: Михаил Галустян, Артем Фадеев, Фёдор Бондарчук, Екатерина Климова, Николай Валуев, Ирина Безрукова, Катерина Шпица, Алексей Макаров, Константин Юшкевич, Инга Стрелкова-Оболдина
О фильме:
Быть пандой весело! Но не Мише, который вынужден работать в костюме панды на детских праздниках. Ему тридцать лет, он живет в крохотной однушке на окраине Москвы, и у него нет серьезной работы. Все было так, пока его не позвали на день рождения к сыну олигарха. Артему девять лет, и у него есть тайный план, помочь осуществить который может только Миша. Мальчик и панда отправляются в путешествие через всю страну, то и дело вляпываясь в невероятные ситуации.

Выпущено: Fresh Films, Россия
Продолжительность: 01:28:13
Перевод: Не требуется
Файл
Кодек: XviD
Качество: BDRip [Исходник: Blu-Ray Remux (1080p) от New-Team]
Видео: XviD, 656x352 (1.864), 1044 Кбит/с, 24 кадр/с
Аудио: Русский, MP3, 48000 Гц, 128 Кбит/с, 2 канала (Стерео)
Субтитры: Нет

General
Complete name : Podarok.s.harakterom.2014.BDRip.745MB.avi
Format : AVI
Format/Info : Audio Video Interleave
File size : 746 MiB
Duration : 1h 28mn
Overall bit rate : 1 182 Kbps
Writing application : VirtualDubMod 1.5.10.3 (build 2550/release)
Writing library : VirtualDubMod build 2550/release
Video
ID : 0
Format : MPEG-4 Visual
Format profile : Advanced Simple@L5
Format settings, BVOP : 2
Format settings, QPel : No
Format settings, GMC : No warppoints
Format settings, Matrix : Custom
Codec ID : XVID
Codec ID/Hint : XviD
Duration : 1h 28mn
Bit rate : 1 044 Kbps
Width : 656 pixels
Height : 352 pixels
Display aspect ratio : 1.864
Frame rate : 24.000 fps
Color space : YUV
Chroma subsampling : 4:2:0
Bit depth : 8 bits
Scan type : Progressive
Compression mode : Lossy
Bits/(Pixel*Frame) : 0.188
Stream size : 659 MiB (88%)
Writing library : XviD 73
Audio
ID : 1
Format : MPEG Audio
Format version : Version 1
Format profile : Layer 3
Codec ID : 55
Codec ID/Hint : MP3
Duration : 1h 28mn
Bit rate mode : Constant
Bit rate : 128 Kbps
Channel(s) : 2 channels
Sampling rate : 48.0 KHz
Compression mode : Lossy
Stream size : 80.8 MiB (11%)
Alignment : Aligned on interleaves
Interleave, duration : 42 ms (1.00 video frame)
Interleave, preload duration : 504 ms
Writing library : LAME3.99r
Encoding settings : -m s -V 4 -q 0 -lowpass 17 -b 128



Автор рипа - ivandubskoj



   Похожие торренты   Торрент   Размер 
В этой теме нет новых непрочитанных сообщений. Подарок с характером (2014) BDRip-AVC

232 | 76

1.46 ГБ

В этой теме нет новых непрочитанных сообщений. Подарок с характером (2014) BDRip-AVC

347 | 20

745.56 МБ

В этой теме нет новых непрочитанных сообщений. Подарок с характером (2014) BDRip 720p

1022 | 53

2.53 ГБ

В этой теме нет новых непрочитанных сообщений. Подарок с характером (2014) BDRip-AVC от HQCLUB

132 | 7

2.1 ГБ

В этой теме нет новых непрочитанных сообщений. Подарок с характером (2014) BDRip от New-Team | лицензия

4444 | 350

1.46 ГБ

В этой теме нет новых непрочитанных сообщений. Подарок с характером (2014) BDRip от HQCLUB | Лицензия

1133 | 53

1.45 ГБ

В этой теме нет новых непрочитанных сообщений. Подарок с характером (2014) BDRip-AVC от New-Team | лицензия

442 | 87

1.46 ГБ




Вы не можете начинать темы
Вы не можете отвечать на сообщения
Вы не можете редактировать свои сообщения
Вы не можете удалять свои сообщения
Вы не можете добавлять вложения

Перейти:  
Для Мосгорсуда, Роскомнадзора и рекламодателей: mosgorsud-torrent[собачка]yandex.ru
 Вход
ppkBB3cker v.2 © 2008-2014 @ PPK
[ Time : 0.051s | 17 Queries | GZIP : Off ]

cron