img image001 image001 image001 image001 image001 image001 image001 image001 image001 image001 image001 image001 image001 image001 image001

Planets Sun Sun Sun
Статистика раздачи
Автор: Nickolas3434 | Размер: 1.46 ГБ | Добавлен: 14 авг 2014
Раздают: 196    Качают: 73
Скачать торрент
Скачать торрент
Описание торрента

СообщениеДобавлено: 14 авг 2014 


Страна: СССР
Производство: Киностудия им. А. Довженко
Жанр: Военный
Год выпуска: 1968
Продолжительность: 01:33:12
Язык: Русский
Режиссер: Владимир Денисенко
В ролях: Анатолий Барчук, Виталий Росстальной, Армен Джигарханян, Константин Степанков, Степан Олексенко, Наталья Наум, Виктор Мирошниченко, Николай Яковченко, Валерий Бессараб, Михаил Державин, Александр Сердюк, Светлана Кузьмина, Валентина Гришокина
Описание: Фильм раскрывает одну из самых трагичных страниц летописи Великой Отечественной войны — ее первые месяцы, период обороны Киева и захвата его немецкими оккупантами.

Исходник: DVD5 R5
Тип релиза: DVDRip
Контейнер: AVI
Видео: XviD, 2034 Кбит/с, 704х384
Аудио: АС3, 2 ch, 192 Кбит/с
Общее
Полное имя : E:1АААНа Киевском направлении.avi
Формат : AVI
Формат/Информация : Audio Video Interleave
Размер файла : 1,46 Гбайт
Продолжительность : 1 ч. 33 м.
Общий поток : 2235 Кбит/сек
Программа кодирования : VirtualDubMod 1.5.10.3 | www.virtualdub-fr.org || (build 2550/release)
Библиотека кодирования : VirtualDubMod build 2550/release
Видео
Идентификатор : 0
Формат : MPEG-4 Visual
Профиль формата : Advanced Simple@L5
Параметр BVOP формата : 1
Параметр QPel формата : Нет
Параметр GMC формата : Без точки перехода
Параметр матрицы формата : Default (H.263)
Идентификатор кодека : XVID
Идентификатор кодека/Подсказка : XviD
Продолжительность : 1 ч. 33 м.
Битрейт : 2034 Кбит/сек
Ширина : 704 пикселя
Высота : 384 пикселя
Соотношение сторон : 1,85:1
Частота кадров : 23,976 кадра/сек
Цветовое пространство : YUV
Субдискретизация насыщенности : 4:2:0
Битовая глубина : 8 бит
Тип развёртки : Прогрессивная
Метод сжатия : С потерями
Бит/(Пиксели*Кадры) : 0.314
Размер потока : 1,32 Гбайт (91%)
Библиотека кодирования : XviD 1.2.1 (UTC 2008-12-04)
Аудио
Идентификатор : 1
Формат : AC-3
Формат/Информация : Audio Coding 3
Расширение режима : CM (complete main)
Параметр Endianness формата : Big
Идентификатор кодека : 2000
Продолжительность : 1 ч. 33 м.
Вид битрейта : Постоянный
Битрейт : 192 Кбит/сек
Каналы : 2 канала
Расположение каналов : Front: L R
Частота : 48,0 КГц
Битовая глубина : 16 бит
Метод сжатия : С потерями
Размер потока : 128 Мбайт (9%)
Выравнивание : Разделение по промежуткам
Продолжительность промежутка : 42 мс. (1,00 видеокадр)
Время предзагрузки промежутка : 500 мс.


Релиз группа:
Автор рипа:



   Похожие торренты   Торрент   Размер 
В этой теме нет новых непрочитанных сообщений. На Киевском направлении / Нет неизвестных солдат (1965 - 1968) DVD5

26 | 26

4.36 ГБ

В этой теме нет новых непрочитанных сообщений. Задание К / Assignment K (1968) DVDRip - от NovaLan

1 | 3

1.48 ГБ

В этой теме нет новых непрочитанных сообщений. Сладкий яд / Pretty Poison (1968) DVDRip от NovaLan

24 | 4

1.37 ГБ

В этой теме нет новых непрочитанных сообщений. Смертельное падение / Deadfall (1968) DVDRip от NovaLan

6 | 1

1.89 ГБ

В этой теме нет новых непрочитанных сообщений. Война на западном направлении (1990) DVDRip от Русфильм

852 | 81

4.14 ГБ

В этой теме нет новых непрочитанных сообщений. Путешествие в Шилох / Journey to Shiloh (1968) DVDRip от NovaLan

1 | 8

1.47 ГБ

В этой теме нет новых непрочитанных сообщений. Коплан спасает свою шкуру / Coplan sauve sa peau (1968) DVDRip | A от NovaLan

1 | 11

1.46 ГБ




Вы не можете начинать темы
Вы не можете отвечать на сообщения
Вы не можете редактировать свои сообщения
Вы не можете удалять свои сообщения
Вы не можете добавлять вложения

Перейти:  
Для Мосгорсуда, Роскомнадзора и рекламодателей: mosgorsud-torrent[собачка]yandex.ru
 Вход
ppkBB3cker v.2 © 2008-2014 @ PPK
[ Time : 0.039s | 14 Queries | GZIP : Off ]

Торрент трекер RUTOR.IN, Не можете зайти на rutor.org? Какой новый адрес рутор? Какое зеркало рутор? Не работает rutor.org и зеркала? Тогда наш торрент специально для вас. Rutor.in неофициальное зеркало rutor. В случае если у Вас заблокирован rutor или вдруг Вы не можете на него зайти, то Вы без труда сможете скачать бесплатно и без рекламы последние новинки кино, игр, сериалов и прочего у нас, на Rutor.in. Не нужно использовать прокси, чтобы зайти на рутор, достаточно воспользоваться нашим ресурсом. Все новые фильмы, игры, сериалы, книги и музыка за 2013 и 2014 годы через торрент бесплатно. Скачивайте фильмы в хорошем качестве, игры для пк, xbox, playstation без регистрации. У нас вы найдете новые Зарубежные сериалы и Русские сериалы 2013, 2014, 2015 годов. Оставайтесь с нами, качайте любимые фильмы, игры, сериалы, книги и музыку.