img image001 image001 image001 image001 image001 image001 image001 image001 image001 image001 image001 image001 image001 image001 image001

Planets Sun Sun Sun
Статистика раздачи
Автор: Nickolas3434 | Размер: 11.47 ГБ | Добавлен: 19 авг 2014
Раздают: 68    Качают: 22
Скачать торрент
Скачать торрент
Описание торрента

СообщениеДобавлено: 19 авг 2014 

Информация о фильме
Название: Солярис
Оригинальное название: Солярис
Год выхода: 1972
Жанр: фантастика, драма
Режиссер: Андрей Тарковский
В ролях: Донатас Банионис, Наталья Бондарчук, Юри Ярвет, Николай Гринько, Владислав Дворжецкий, Юлиан Семенов, Анатолий Солоницын, Ольга Барнет, Виталик Кердимун, Ольга Кизилова, Татьяна Малых, Александр Мишарин, Баграт Оганесян, Тамара Огородникова, Сос Саркисян, Валентина Суменова, Георгий Тейх, Раймундас Банионис...
О фильме:
На космическую станцию, сотрудники которой давно и тщетно пытаются сладить с загадкой планеты Солярис, покрытой Океаном, прибывает новый обитатель, психолог Крис Кельвин, чтобы разобраться в странных сообщениях, поступающих со станции, и «закрыть» ее вместе со всей бесплодной «соляристикой». Поначалу ему кажется, что немногие уцелевшие на станции ученые сошли с ума. Потом он и сам становится жертвой жуткого наваждения: ему является его бывшая возлюбленная Хари, некогда, на Земле, покончившая с собой...
Страна: СССР
Продолжительность: 02:46:54
Перевод: Оригинал

Файл
Кодек: h.264
Качество: BDRip 1080p
Видео: 1920x808, 9387 Kbps, 23.976 fps, Bits/(Pixel*Frame) 0.252
Звук: AC-3, 448 Kbps, 6 channels
Format : Matroska
Format version : Version 4 / Version 2
File size : 11.5 GiB
Duration : 2h 46mn
Overall bit rate : 9 838 Kbps
Encoded date : UTC 2014-08-18 15:31:13
Writing application : mkvmerge v7.1.0 ('Good Love') 32bit built on Jul 27 2014 12:59:18
Writing library : libebml v1.3.0 + libmatroska v1.4.1
DURATION : 02:46:43.584000000
NUMBER_OF_FRAMES : 312612
NUMBER_OF_BYTES : 560200704
_STATISTICS_WRITING_APP : mkvmerge v7.1.0 ('Good Love') 32bit built on Jul 27 2014 12:59:18
_STATISTICS_WRITING_DATE_UTC : 2014-08-18 15:31:13
_STATISTICS_TAGS : BPS DURATION NUMBER_OF_FRAMES NUMBER_OF_BYTES
Video
ID : 1
Format : AVC
Format/Info : Advanced Video Codec
Format profile : High@L4.1
Format settings, CABAC : Yes
Format settings, ReFrames : 5 frames
Codec ID : V_MPEG4/ISO/AVC
Duration : 2h 46mn
Bit rate : 9 387 Kbps
Width : 1 920 pixels
Height : 808 pixels
Display aspect ratio : 2.40:1
Frame rate mode : Constant
Frame rate : 23.976 fps
Color space : YUV
Chroma subsampling : 4:2:0
Bit depth : 8 bits
Scan type : Progressive
Bits/(Pixel*Frame) : 0.252
Stream size : 10.7 GiB (93%)
Writing library : x264 core 130 r2273 b3065e6
Encoding settings : cabac=1 / ref=5 / deblock=1:-1:-1 / analyse=0x3:0x133 / me=umh / subme=11 / psy=1 / psy_rd=1.00:0.20 / mixed_ref=1 / me_range=32 / chroma_me=1 / trellis=2 / 8x8dct=1 / cqm=0 / deadzone=21,11 / fast_pskip=0 / chroma_qp_offset=-3 / threads=6 / lookahead_threads=1 / sliced_threads=0 / nr=0 / decimate=0 / interlaced=0 / bluray_compat=0 / constrained_intra=0 / bframes=8 / b_pyramid=2 / b_adapt=2 / b_bias=0 / direct=3 / weightb=1 / open_gop=0 / weightp=2 / keyint=250 / keyint_min=23 / scenecut=40 / intra_refresh=0 / rc_lookahead=60 / rc=2pass / mbtree=1 / bitrate=9387 / ratetol=1.0 / qcomp=0.60 / qpmin=0 / qpmax=69 / qpstep=4 / cplxblur=20.0 / qblur=0.5 / ip_ratio=1.40 / aq=1:1.00
Language : English
Default : Yes
Forced : No
DURATION : 02:46:54.145000000
NUMBER_OF_FRAMES : 240099
NUMBER_OF_BYTES : 11752113482
_STATISTICS_WRITING_APP : mkvmerge v7.1.0 ('Good Love') 32bit built on Jul 27 2014 12:59:18
_STATISTICS_WRITING_DATE_UTC : 2014-08-18 15:31:13
_STATISTICS_TAGS : BPS DURATION NUMBER_OF_FRAMES NUMBER_OF_BYTES
Audio
ID : 2
Format : AC-3
Format/Info : Audio Coding 3
Mode extension : CM (complete main)
Format settings, Endianness : Big
Codec ID : A_AC3
Duration : 2h 46mn
Bit rate mode : Constant
Bit rate : 448 Kbps
Channel(s) : 6 channels
Channel positions : Front: L C R, Side: L R, LFE
Sampling rate : 48.0 KHz
Bit depth : 16 bits
Compression mode : Lossy
Delay relative to video : 4s 986ms
Stream size : 535 MiB (5%)
Title : Krupnyi Plan 5.1
Language : Russian
Default : Yes
Forced : No

x264 [info]: frame I:1047 Avg QP:19.35 size:158979
x264 [info]: frame P:47618 Avg QP:21.75 size: 77259
x264 [info]: frame B:191434 Avg QP:23.60 size: 41303




   Похожие торренты   Торрент   Размер 
В этой теме нет новых непрочитанных сообщений. Солярис (1972) BDRemux 1080p

12 | 11

29.43 ГБ

В этой теме нет новых непрочитанных сообщений. Солярис (1972) BDRip-AVC от olegek70

8 | 4

3.71 ГБ

В этой теме нет новых непрочитанных сообщений. Солярис (1972) BDRip-AVC от New-Team

66 | 27

2.91 ГБ

В этой теме нет новых непрочитанных сообщений. Солярис (1972) BDRip от New-Team

116 | 24

2.19 ГБ

В этой теме нет новых непрочитанных сообщений. Солярис (1972) BDRip-AVC от ExKinoRay

9 | 3

3.43 ГБ

В этой теме нет новых непрочитанных сообщений. Солярис (1972) BDRip-AVC | iPad

17 | 7

3.91 ГБ

В этой теме нет новых непрочитанных сообщений. Солярис (1972) BDRip от HQCLUB

74 | 4

2.9 ГБ




Вы не можете начинать темы
Вы не можете отвечать на сообщения
Вы не можете редактировать свои сообщения
Вы не можете удалять свои сообщения
Вы не можете добавлять вложения

Перейти:  
Для Мосгорсуда, Роскомнадзора и рекламодателей: mosgorsud-torrent[собачка]yandex.ru
 Вход
ppkBB3cker v.2 © 2008-2014 @ PPK
[ Time : 0.024s | 15 Queries | GZIP : Off ]

Торрент трекер RUTOR.IN, Не можете зайти на rutor.org? Какой новый адрес рутор? Какое зеркало рутор? Не работает rutor.org и зеркала? Тогда наш торрент специально для вас. Rutor.in неофициальное зеркало rutor. В случае если у Вас заблокирован rutor или вдруг Вы не можете на него зайти, то Вы без труда сможете скачать бесплатно и без рекламы последние новинки кино, игр, сериалов и прочего у нас, на Rutor.in. Не нужно использовать прокси, чтобы зайти на рутор, достаточно воспользоваться нашим ресурсом. Все новые фильмы, игры, сериалы, книги и музыка за 2013 и 2014 годы через торрент бесплатно. Скачивайте фильмы в хорошем качестве, игры для пк, xbox, playstation без регистрации. У нас вы найдете новые Зарубежные сериалы и Русские сериалы 2013, 2014, 2015 годов. Оставайтесь с нами, качайте любимые фильмы, игры, сериалы, книги и музыку.