img image001 image001 image001 image001 image001 image001 image001 image001 image001 image001 image001 image001 image001 image001 image001

Planets Sun Sun Sun
Статистика раздачи
Автор: Nickolas3434 | Размер: 2.05 ГБ | Добавлен: 24 авг 2014
Раздают: 156    Качают: 29
Скачать торрент
Скачать торрент
Описание торрента

СообщениеДобавлено: 24 авг 2014 

Информация о фильме
Название: Поддубный
Год выхода: 2014
Жанр: Драма, мелодрама, спорт, биография
Режиссёр: Глеб Орлов
В ролях: Михаил Пореченков, Дени Лаван, Владимир Ильин, Юрий Колокольников, Роман Мадянов, Александр Михайлов, Катерина Шпица, Максим Сапрыкин, Петр Крылов, Андрей Дебрин
О фильме:
Его называли Чемпион чемпионов. О силе и волевом характере Поддубного слагали легенды. И в 50 великий борец играючи одолевал молодых атлетов, а в вопросах чести и справедливости не знал компромиссов. И лишь любовь смогла уложить Русского Богатыря на обе лопатки…


Страна: Россия
Студия: Канал Россия, Красная стрела, Студия Тритэ
Продолжительность: 01:57:41
Перевод: Не требуется
Файл
Кодек: XviD
Качество: BDRip [Исходник: Blu-ray RUS 1080i AVC DTS 5.1 от HDClub]
Видео: XviD, 720x304 (2.35:1), 2039 Кбит/с, 25 кадр/с
Звук: Русский, Dolby AC3, 48000 Гц, 448 Кбит/с, 6 каналов (5.1)
Субтитры: Нет

General
Complete name : Poddubnyy.2014.BDRip.avi
Format : AVI
Format/Info : Audio Video Interleave
Format profile : OpenDML
File size : 2.05 GiB
Duration : 1h 57mn
Overall bit rate : 2 498 Kbps
Movie name : Поддубный (2014) BDRip
Genre : Драма, мелодрама, биография, спорт
Recorded date : 23.08.2014
Writing application : VirtualDubMod 1.5.10.3 | www.virtualdub-fr.org || (build 2550/release)
Writing library : VirtualDubMod build 2550/release
Copyright : rip by ivandubskoj
Video
ID : 0
Format : MPEG-4 Visual
Format profile : Advanced Simple@L5
Format settings, BVOP : 1
Format settings, QPel : No
Format settings, GMC : No warppoints
Format settings, Matrix : Custom
Codec ID : XVID
Codec ID/Hint : XviD
Duration : 1h 57mn
Bit rate : 2 039 Kbps
Width : 720 pixels
Height : 304 pixels
Display aspect ratio : 2.35:1
Frame rate : 25.000 fps
Color space : YUV
Chroma subsampling : 4:2:0
Bit depth : 8 bits
Scan type : Progressive
Compression mode : Lossy
Bits/(Pixel*Frame) : 0.373
Stream size : 1.68 GiB (82%)
Writing library : XviD 73
Audio
ID : 1
Format : AC-3
Format/Info : Audio Coding 3
Mode extension : CM (complete main)
Codec ID : 2000
Duration : 1h 57mn
Bit rate mode : Constant
Bit rate : 448 Kbps
Channel(s) : 6 channels
Channel positions : Front: L C R, Side: L R, LFE
Sampling rate : 48.0 KHz
Bit depth : 16 bits
Compression mode : Lossy
Stream size : 377 MiB (18%)
Alignment : Split accross interleaves
Interleave, duration : 64 ms (1.60 video frames)
Interleave, preload duration : 500 ms
Title : Russian

Автор рипа - ivandubskoj



   Похожие торренты   Торрент   Размер 
В этой теме нет новых непрочитанных сообщений. Поддубный (2014) BDRip

2560 | 60

1.45 ГБ

В этой теме нет новых непрочитанных сообщений. Поддубный (2014) BDRip 720p

2237 | 95

3.29 ГБ

В этой теме нет новых непрочитанных сообщений. Поддубный (2014) BDRip-AVC от Wazzzup | Лицензия

1475 | 55

744.79 МБ

В этой теме нет новых непрочитанных сообщений. Поддубный (2014) BDRip от HQ-ViDEO | Лицензия

8962 | 250

2.18 ГБ

В этой теме нет новых непрочитанных сообщений. Поддубный (2014) BDRip-AVC от HELLYWOOD | Лицензия

1386 | 90

1.46 ГБ

В этой теме нет новых непрочитанных сообщений. Поддубный (2014) BDRip 1080p от NNNB

543 | 23

7.76 ГБ

В этой теме нет новых непрочитанных сообщений. Поддубный (2014) BDRip от HQCLUB | Лицензия

337 | 13

2.19 ГБ




Вы не можете начинать темы
Вы не можете отвечать на сообщения
Вы не можете редактировать свои сообщения
Вы не можете удалять свои сообщения
Вы не можете добавлять вложения

Перейти:  
Для Мосгорсуда, Роскомнадзора и рекламодателей: mosgorsud-torrent[собачка]yandex.ru
 Вход
ppkBB3cker v.2 © 2008-2014 @ PPK
[ Time : 0.031s | 15 Queries | GZIP : Off ]

Торрент трекер RUTOR.IN, Не можете зайти на rutor.org? Какой новый адрес рутор? Какое зеркало рутор? Не работает rutor.org и зеркала? Тогда наш торрент специально для вас. Rutor.in неофициальное зеркало rutor. В случае если у Вас заблокирован rutor или вдруг Вы не можете на него зайти, то Вы без труда сможете скачать бесплатно и без рекламы последние новинки кино, игр, сериалов и прочего у нас, на Rutor.in. Не нужно использовать прокси, чтобы зайти на рутор, достаточно воспользоваться нашим ресурсом. Все новые фильмы, игры, сериалы, книги и музыка за 2013 и 2014 годы через торрент бесплатно. Скачивайте фильмы в хорошем качестве, игры для пк, xbox, playstation без регистрации. У нас вы найдете новые Зарубежные сериалы и Русские сериалы 2013, 2014, 2015 годов. Оставайтесь с нами, качайте любимые фильмы, игры, сериалы, книги и музыку.