img image001 image001 image001 image001 image001 image001 image001 image001 image001 image001 image001 image001 image001 image001 image001

Planets Sun Sun Sun
Статистика раздачи
Автор: Nickolas3434 | Размер: 8.02 ГБ | Добавлен: 24 авг 2014
Раздают: 298    Качают: 13
Скачать торрент
Скачать торрент
Описание торрента

СообщениеДобавлено: 24 авг 2014 

Оригинальное название: День радио
Год выхода: 2008
Жанр: комедия
Режиссер: Дмитрий Дьяченко
В ролях: Михаил Козырев, Леонид Барац, Ростислав Хаит, Александр Демидов, Камиль Ларин, Михаил Полицеймако, Нонна Гришаева, Максим Виторган, Дмитрий Марьянов, Анна Касаткина, Федор Добронравов, Амалия Мордвинова, Алексей Хардиков, Георгий Мартиросян, Эммануил Виторган и др.
Сюжет фильма: Один день из жизни модной московской радиостанции. Не самый лучший день — рушатся все планы, все валится из рук… И именно в тот момент, когда на станции в прямом эфире вот-вот должен начаться "живой" марафон, а популярные российские рок-группы придут в эфир, чтобы поддержать… впрочем, это уже неважно, потому что тема марафона перехвачена конкурентами и активно обсуждается в эфире "вражеской" радиостанции. Но марафон отменять нельзя!
Рабочий день обещает стать последним для всего творческого состава, если срочно не найдется новая тема. А тем временем из Находки вышел маленький катер с лучшими представителями Благовещенского областного цирка — медведь, обезьяна, два пуделя, петух, козел, кабан, которые плывут на гастроли в Японию. И если бы кто-то из команды катера не слил налево полбака солярки, а еще кто-то — еще полбака, то они бы, возможно, даже и доплыли бы.
А так… …а так дрейфующий в море жалкий кораблик в течение нескольких минут, благодаря креативным умам сотрудников радиостанции становится гигантским научным лайнером, на борту которого находится сотня уникальных животных, многие из которых сохранились чуть ли не в единственном экземпляре. И этот лайнер терпит чудовищное бедствие в водах Японского моря — ну и, конечно, в прямом эфире "Как Бы Радио". Мир на грани зоокатастрофы!!! Свои комментарии дает сама Бриджит Бордо, а в борьбу за спасение генофонда включаются МЧС и МинОбороны. И, разумеется, лучшие представители отечественной рок-музыки…
Выпущено: Россия
Продолжительность: 01:43:01
Контейнер: MKV
Видео: MPEG4-AVC, 1920x1036, ~9000 kbps
Звук 1:Русский - DTS-HD 5.1, 48 kHz, 1510 kbps
Звук 2:Русский - Dolby Digital 5.1, 48 kHz, 640 kbps
Субтитры: нет




Имя файла: Den_radio_polnik_BT-club.mkv
Формат файла: .mkv (Matroska)
Размер файла: 8.02 GB
Длительность: 1h 43mn
Навигация по главам: Есть
Битрейт (все потоки): 11.1 Mbps
Файл создан: UTC 2014-08-18 01:41:55
Создан при помощи: mkvmerge v7.0.0 ('Where We Going') 32bit built on Jun 9 2014 15:08:34
Использовалась библиотека: libebml v1.3.0 + libmatroska v1.4.1
Обложка: Отсутствует
:
Название: Den_radio_polnik_BT-club
:
Тип потока: Видео
Длительность: 01:43:01
Кодек: AVC
Кодек/описание: Advanced Video Codec
Кодек/профиль: High@L4.1
Кодек/ID: V_MPEG4/ISO/AVC
Кодек/CABAC: Yes
Кодек/ReFrames: 4 frames
Размеры изображения: 1920 x 1036 (1.85:1)
Частота кадров: 23.976 fps
Частота кадров/тип: Constant
Размер потока: 6.32 GiB (79%)
Битрейт: 8 999 Kbps
Библиотека кодирования: x264 core 142 r2431 ac76440
Цветовое пространство: YUV
Тип развёртки: Progressive
Глубина: 8 bits
Настройки кодирования: cabac=1 / ref=4 / deblock=1:0:0 / analyse=0x3:0x133 / me=tesa / subme=11 / psy=1 / psy_rd=1.00:0.15 / mixed_ref=1 / me_range=24 / chroma_me=1 / trellis=2 / 8x8dct=1 / cqm=0 / deadzone=21,11 / fast_pskip=0 / chroma_qp_offset=-3 / threads=12 / lookahead_threads=1 / sliced_threads=0 / nr=100 / decimate=1 / interlaced=0 / bluray_compat=0 / constrained_intra=0 / bframes=5 / b_pyramid=2 / b_adapt=2 / b_bias=0 / direct=3 / weightb=1 / open_gop=0 / weightp=2 / keyint=230 / keyint_min=22 / scenecut=40 / intra_refresh=0 / rc_lookahead=60 / rc=2pass / mbtree=1 / bitrate=8999 / ratetol=1.0 / qcomp=0.60 / qpmin=0 / qpmax=69 / qpstep=4 / cplxblur=20.0 / qblur=0.5 / vbv_maxrate=62500 / vbv_bufsize=78125 / nal_hrd=none / filler=0 / ip_ratio=1.40 / aq=1:1.00
:
Тип потока: Звук #1
Язык: Russian
Название: Русский DTS
Длительность: 01:43:01.600
Кодек: DTS
Кодек/описание: Digital Theater Systems
Кодек/ID: A_DTS
Частота дискретизации: 48.0 KHz
Каналов: 6 channels
Битрейт: 1 509 Kbps
Битрейт/тип: Constant
Размер потока: 1.09 GiB (14%)
Глубина: 24 bits
Метод сжатия: Lossy
:
Тип потока: Звук #2
Язык: Russian
Название: Русский
Длительность: 01:43:01.600
Кодек: AC-3
Кодек/описание: Audio Coding 3
Кодек/ID: A_AC3
Частота дискретизации: 48.0 KHz
Каналов: 6 channels
Битрейт: 640 Kbps
Битрейт/тип: Constant
Размер потока: 472 MiB (6%)
Глубина: 16 bits
Метод сжатия: Lossy



   Похожие торренты   Торрент   Размер 
В этой теме нет новых непрочитанных сообщений. День радио (2008) BDRip 1080p

127 | 5

9.72 ГБ

В этой теме нет новых непрочитанных сообщений. Миллионер из трущоб / Slumdog Millionaire (2008) BDRip 1080p от BT-Club

51 | 10

4.11 ГБ

В этой теме нет новых непрочитанных сообщений. Выживание в засуху / Surviving The Drought (2008) BDRip 1080p от Filmoff CLUB

0 | 2

6.45 ГБ

В этой теме нет новых непрочитанных сообщений. Discovery: Тело человека: Грани возможного / Human body: Pushing the limits [01-04 из 04] (2008) BDRip 1080p от Filmoff CLUB

39 | 6

12.66 ГБ

В этой теме нет новых непрочитанных сообщений. День радио (2008) BDRip от HQ-ViDEO

1669 | 49

1.46 ГБ

В этой теме нет новых непрочитанных сообщений. День радио (2008) BDRip от HQCLUB

50 | 8

1.8 ГБ

В этой теме нет новых непрочитанных сообщений. День радио (2008) BDRip-AVC от HQ-ViDEO

603 | 27

2.18 ГБ




Вы не можете начинать темы
Вы не можете отвечать на сообщения
Вы не можете редактировать свои сообщения
Вы не можете удалять свои сообщения
Вы не можете добавлять вложения

Перейти:  
Для Мосгорсуда, Роскомнадзора и рекламодателей: mosgorsud-torrent[собачка]yandex.ru
 Вход
ppkBB3cker v.2 © 2008-2014 @ PPK
[ Time : 0.051s | 15 Queries | GZIP : Off ]
CGP output time : 0.028s | 5 Queries | GZIP : Off

Торрент трекер RUTOR.IN, Не можете зайти на rutor.org? Какой новый адрес рутор? Какое зеркало рутор? Не работает rutor.org и зеркала? Тогда наш торрент специально для вас. Rutor.in неофициальное зеркало rutor. В случае если у Вас заблокирован rutor или вдруг Вы не можете на него зайти, то Вы без труда сможете скачать бесплатно и без рекламы последние новинки кино, игр, сериалов и прочего у нас, на Rutor.in. Не нужно использовать прокси, чтобы зайти на рутор, достаточно воспользоваться нашим ресурсом. Все новые фильмы, игры, сериалы, книги и музыка за 2013 и 2014 годы через торрент бесплатно. Скачивайте фильмы в хорошем качестве, игры для пк, xbox, playstation без регистрации. У нас вы найдете новые Зарубежные сериалы и Русские сериалы 2013, 2014, 2015 годов. Оставайтесь с нами, качайте любимые фильмы, игры, сериалы, книги и музыку.