img image001 image001 image001 image001 image001 image001 image001 image001 image001 image001 image001 image001 image001 image001 image001

Planets Sun Sun Sun
Статистика раздачи
Автор: Nickolas3434 | Размер: 9.82 ГБ | Добавлен: 24 авг 2014
Раздают: 451    Качают: 16
Скачать торрент
Скачать торрент
Описание торрента

СообщениеДобавлено: 24 авг 2014 

Информация о фильме
Оригинальное название: Поддубный
Год выпуска: 2014
Жанр: Драма, спорт, биография
Режиссер: Глеб Орлов
В ролях: Михаил Пореченков, Дени Лаван, Владимир Ильин, Юрий Колокольников, Роман Мадянов, Александр Михайлов, Екатерина Шпица, Максим Сапрыкин, Пётр Крылов, Андрей Дебрин
Описание: Его называли Чемпион чемпионов. О силе и волевом характере Поддубного слагали легенды. И в 50 великий борец играючи одолевал молодых атлетов, а вопросах чести и справедливости не знал компромиссов. И лишь любовь смогла уложить Русского Богатыря на обе лопатки…

Выпущено: Россия / Канал Россия, Красная стрела, Студия Тритэ
Продолжительность: 01:57:41
Файл
Качество: BDRip 1080p
Видео: MPEG-4 AVC, 9800 Кбит/с, 1916x808, 25.000 кадр/с
Аудио #1: Русский (AC3, 6 ch, 640 Кбит/с)
Аудио #2: Русский (DTS, 6 ch, 1509 Кбит/с)
Семпл

x264 [info]: frame I:1454 Avg QP:15.89 size:258819
x264 [info]: frame P:45489 Avg QP:18.51 size: 84481
x264 [info]: frame B:129583 Avg QP:20.45 size: 34161
x264 [info]: consecutive B-frames: 5.4% 3.5% 14.8% 19.8% 11.5% 37.9% 5.5% 0.7% 0.4% 0.5%
***************************************************************************************************************************
Общее
Уникальный идентификатор : 194194585149902346700364392103383878458 (0x92188443AF9950958C20EA1520D74B3A)
Полное имя : D:Mои раздачиPoddubnyi.2014.BDRip.1080p-MediaClub.mkv
Формат : Matroska
Версия формата : Version 4 / Version 2
Размер файла : 9,82 Гбайт
Продолжительность : 1 ч. 57 м.
Общий поток : 11,9 Мбит/сек
Дата кодирования : UTC 2014-08-23 19:28:06
Программа кодирования : mkvmerge v6.9.1 ('Blue Panther') 64bit built on Apr 18 2014 18:23:38
Библиотека кодирования : libebml v1.3.0 + libmatroska v1.4.1
Видео
Идентификатор : 1
Формат : AVC
Формат/Информация : Advanced Video Codec
Профиль формата : High@L4.1
Параметр CABAC формата : Да
Параметр ReFrames формата : 5 кадров
Идентификатор кодека : V_MPEG4/ISO/AVC
Продолжительность : 1 ч. 57 м.
Битрейт : 9800 Кбит/сек
Ширина : 1916 пикселей
Высота : 808 пикселей
Соотношение сторон : 2,40:1
Режим частоты кадров : Постоянный
Частота кадров : 25,000 кадров/сек
Цветовое пространство : YUV
Субдискретизация насыщенности : 4:2:0
Битовая глубина : 8 бит
Тип развёртки : Прогрессивная
Бит/(Пиксели*Кадры) : 0.253
Размер потока : 7,86 Гбайт (80%)
Заголовок : -=MediaClub-kaspr=-
Библиотека кодирования : x264 core 142 r2431+42 c69a006 tMod [8-bit@4:2:0 X86_64]
Настройки программы : cabac=1 / ref=5 / deblock=1:-3:-3 / analyse=0x3:0x113 / me=umh / subme=11 / psy=1 / fade_compensate=0.00 / psy_rd=1.00:0.20 / mixed_ref=1 / me_range=32 / chroma_me=1 / trellis=2 / 8x8dct=1 / cqm=0 / deadzone=21,11 / fast_pskip=0 / chroma_qp_offset=-3 / threads=12 / lookahead_threads=2 / sliced_threads=0 / nr=0 / decimate=0 / interlaced=0 / bluray_compat=0 / constrained_intra=0 / fgo=0 / bframes=9 / b_pyramid=2 / b_adapt=2 / b_bias=0 / direct=3 / weightb=1 / open_gop=0 / weightp=2 / keyint=250 / keyint_min=25 / scenecut=40 / intra_refresh=0 / rc=2pass / mbtree=0 / bitrate=9800 / ratetol=1.0 / qcomp=0.60 / qpmin=0:0:0 / qpmax=69:69:69 / qpstep=4 / cplxblur=20.0 / qblur=0.5 / ip_ratio=1.40 / pb_ratio=1.30 / aq=4:0.80 / aq-sensitivity=10.00 / aq-factor=1.00:1.00:1.00 / aq2=0 / aq3=0
Default : Да
Forced : Нет
Аудио #1
Идентификатор : 2
Формат : AC-3
Формат/Информация : Audio Coding 3
Расширение режима : CM (complete main)
Параметр Endianness формата : Big
Идентификатор кодека : A_AC3
Продолжительность : 1 ч. 57 м.
Вид битрейта : Постоянный
Битрейт : 640 Кбит/сек
Каналы : 6 каналов
Расположение каналов : Front: L C R, Side: L R, LFE
Частота : 48,0 КГц
Битовая глубина : 16 бит
Метод сжатия : С потерями
Размер потока : 539 Мбайт (5%)
Заголовок : AC3
Язык : Russian
Default : Да
Forced : Нет
Аудио #2
Идентификатор : 3
Формат : DTS
Формат/Информация : Digital Theater Systems
Режим : 16
Параметр Endianness формата : Big
Идентификатор кодека : A_DTS
Продолжительность : 1 ч. 57 м.
Вид битрейта : Постоянный
Битрейт : 1510 Кбит/сек
Каналы : 6 каналов
Расположение каналов : Front: L C R, Side: L R, LFE
Частота : 48,0 КГц
Битовая глубина : 24 бит
Метод сжатия : С потерями
Размер потока : 1,24 Гбайт (13%)
Заголовок : DTS
Язык : Russian
Default : Нет
Forced : Нет
Меню
00:00:00.000 : en:Chapter 01
00:15:06.560 : en:Chapter 02
00:24:31.440 : en:Chapter 03
00:32:27.080 : en:Chapter 04
00:40:12.400 : en:Chapter 05
00:49:37.719 : en:Chapter 06
00:55:58.640 : en:Chapter 07
01:12:03.000 : en:Chapter 08
01:19:30.720 : en:Chapter 09
01:28:05.200 : en:Chapter 10
01:35:50.000 : en:Chapter 11
01:48:47.120 : en:Chapter 12

Релиз: |



   Похожие торренты   Торрент   Размер 
В этой теме нет новых непрочитанных сообщений. Поддубный (2014) BDRip-AVC от MediaClub | Лицензия

229 | 7

2.67 ГБ

В этой теме нет новых непрочитанных сообщений. Поддубный (2014) BDRip 1080p от ExKinoRay | Лицензия

936 | 46

9.58 ГБ

В этой теме нет новых непрочитанных сообщений. Поддубный (2014) BDRip-AVC от HELLYWOOD | Лицензия

1386 | 90

1.46 ГБ

В этой теме нет новых непрочитанных сообщений. Поддубный (2014) BDRip от HQ-ViDEO | Лицензия

8962 | 250

2.18 ГБ

В этой теме нет новых непрочитанных сообщений. Поддубный (2014) BDRip-AVC от New-Team | Лицензия

662 | 58

747.38 МБ

В этой теме нет новых непрочитанных сообщений. Поддубный (2014) BDRip от HQCLUB | Лицензия

337 | 13

2.19 ГБ

В этой теме нет новых непрочитанных сообщений. Поддубный (2014) BDRip-AVC от New-Team | Лицензия

1536 | 51

1.46 ГБ




Вы не можете начинать темы
Вы не можете отвечать на сообщения
Вы не можете редактировать свои сообщения
Вы не можете удалять свои сообщения
Вы не можете добавлять вложения

Перейти:  
Для Мосгорсуда, Роскомнадзора и рекламодателей: mosgorsud-torrent[собачка]yandex.ru
 Вход
ppkBB3cker v.2 © 2008-2014 @ PPK
[ Time : 0.036s | 16 Queries | GZIP : Off ]

Торрент трекер RUTOR.IN, Не можете зайти на rutor.org? Какой новый адрес рутор? Какое зеркало рутор? Не работает rutor.org и зеркала? Тогда наш торрент специально для вас. Rutor.in неофициальное зеркало rutor. В случае если у Вас заблокирован rutor или вдруг Вы не можете на него зайти, то Вы без труда сможете скачать бесплатно и без рекламы последние новинки кино, игр, сериалов и прочего у нас, на Rutor.in. Не нужно использовать прокси, чтобы зайти на рутор, достаточно воспользоваться нашим ресурсом. Все новые фильмы, игры, сериалы, книги и музыка за 2013 и 2014 годы через торрент бесплатно. Скачивайте фильмы в хорошем качестве, игры для пк, xbox, playstation без регистрации. У нас вы найдете новые Зарубежные сериалы и Русские сериалы 2013, 2014, 2015 годов. Оставайтесь с нами, качайте любимые фильмы, игры, сериалы, книги и музыку.
cron