img image001 image001 image001 image001 image001 image001 image001 image001 image001 image001 image001 image001 image001 image001 image001

Planets Sun Sun Sun
Статистика раздачи
Автор: Nickolas3434 | Размер: 7.76 ГБ | Добавлен: 24 авг 2014
Раздают: 543    Качают: 23
Скачать торрент
Скачать торрент
Описание торрента

СообщениеДобавлено: 24 авг 2014 

Оригинальное название: Поддубный
Год выпуска: 2014
Жанр: Драма, спорт, биография
Выпущено: Россия, Канал Россия, Красная стрела, Студия Тритэ
Режиссер: Глеб Орлов
В ролях: Михаил Пореченков, Дени Лаван, Владимир Ильин, Юрий Колокольников, Роман Мадянов, Александр Михайлов, Екатерина Шпица, Максим Сапрыкин, Пётр Крылов, Андрей Дебрин
Сюжет фильма
Его называли Чемпион чемпионов. О силе и волевом характере Поддубного слагали легенды. И в 50 великий борец играючи одолевал молодых атлетов, а вопросах чести и справедливости не знал компромиссов. И лишь любовь смогла уложить Русского Богатыря на обе лопатки…

Файл
Качество: BDRip 1080p (исходник Blu-ray)
Видео: 1916x810, 8801 Кбит/сек, 25.000 кадр/сек, AVC, x264, High@L4.1, 0.227 Бит/[Пиксели*Кадры], 2pass
Аудио 1: AC3 5.1 48 kHz 640 kbps - Русский
Чаптеры: есть
Продолжительность: 02:03:30
Автор рипа: Сообщество:

[

Format : Matroska
Format version : Version 2
File size : 7.76 GiB
Duration : 1h 57mn
Overall bit rate : 9 439 Kbps
Movie name : Poddubnyj.(2014).BDRip.1080p.[denis100]
Encoded date : UTC 2014-08-23 20:52:35
Writing application : mkvmerge v5.8.0 ('No Sleep / Pillow') built on Sep 2 2012 15:37:04
Writing library : libebml v1.2.3 + libmatroska v1.3.0
Video
ID : 1
Format : AVC
Format/Info : Advanced Video Codec
Format profile : High@L4.1
Format settings, CABAC : Yes
Format settings, ReFrames : 5 frames
Codec ID : V_MPEG4/ISO/AVC
Duration : 1h 57mn
Bit rate : 8 801 Kbps
Width : 1 916 pixels
Height : 810 pixels
Display aspect ratio : 2.35:1
Frame rate mode : Constant
Frame rate : 25.000 fps
Color space : YUV
Chroma subsampling : 4:2:0
Bit depth : 8 bits
Scan type : Progressive
Bits/(Pixel*Frame) : 0.227
Stream size : 7.08 GiB (91%)
Title : Poddubnyj.(2014).BDRip.1080p.[denis100]
Writing library : x264 core 138 r2358 9e941d1
Encoding settings : cabac=1 / ref=5 / deblock=1:-3:-3 / analyse=0x3:0x133 / me=umh / subme=11 / psy=1 / psy_rd=1.00:0.15 / mixed_ref=1 / me_range=32 / chroma_me=1 / trellis=2 / 8x8dct=1 / cqm=0 / deadzone=21,11 / fast_pskip=0 / chroma_qp_offset=-3 / threads=6 / lookahead_threads=1 / sliced_threads=0 / nr=0 / decimate=1 / interlaced=0 / bluray_compat=0 / constrained_intra=0 / bframes=7 / b_pyramid=2 / b_adapt=2 / b_bias=0 / direct=3 / weightb=1 / open_gop=0 / weightp=2 / keyint=250 / keyint_min=25 / scenecut=40 / intra_refresh=0 / rc=2pass / mbtree=0 / bitrate=8801 / ratetol=1.0 / qcomp=0.60 / qpmin=0 / qpmax=69 / qpstep=4 / cplxblur=20.0 / qblur=0.5 / ip_ratio=1.40 / pb_ratio=1.30 / aq=1:0.90
Language : English
Default : Yes
Forced : No
Audio
ID : 2
Format : AC-3
Format/Info : Audio Coding 3
Mode extension : CM (complete main)
Format settings, Endianness : Big
Codec ID : A_AC3
Duration : 1h 57mn
Bit rate mode : Constant
Bit rate : 640 Kbps
Channel(s) : 6 channels
Channel positions : Front: L C R, Side: L R, LFE
Sampling rate : 48.0 KHz
Bit depth : 16 bits
Compression mode : Lossy
Stream size : 539 MiB (7%)
Title : Russian
Language : Russian
Default : Yes
Forced : No
Menu
00:00:00.000 : en:Chapter 01
00:15:06.560 : en:Chapter 02
00:24:31.440 : en:Chapter 03
00:32:27.080 : en:Chapter 04
00:40:12.400 : en:Chapter 05
00:49:37.720 : en:Chapter 06
00:55:58.640 : en:Chapter 07
01:12:02.680 : en:Chapter 08
01:19:30.720 : en:Chapter 09
01:28:05.200 : en:Chapter 10
01:35:49.920 : en:Chapter 11
01:48:46.800 : en:Chapter 12



   Похожие торренты   Торрент   Размер 
В этой теме нет новых непрочитанных сообщений. Поддубный (2014) BDRip 1080p от ExKinoRay | Лицензия

936 | 46

9.58 ГБ

В этой теме нет новых непрочитанных сообщений. Поддубный (2014) BDRip 1080p от MediaClub | Лицензия

451 | 16

9.82 ГБ

В этой теме нет новых непрочитанных сообщений. Поддубный (2014) BDRip

2560 | 60

1.45 ГБ

В этой теме нет новых непрочитанных сообщений. Поддубный (2014) BDRip от ivandubskoj

156 | 29

2.05 ГБ

В этой теме нет новых непрочитанных сообщений. Поддубный (2014) BDRip 720p

2237 | 95

3.29 ГБ

В этой теме нет новых непрочитанных сообщений. Поддубный (2014) BDRip-AVC от MediaClub | Лицензия

229 | 7

2.67 ГБ

В этой теме нет новых непрочитанных сообщений. Поддубный (2014) BDRip от HQCLUB | Лицензия

337 | 13

2.19 ГБ




Вы не можете начинать темы
Вы не можете отвечать на сообщения
Вы не можете редактировать свои сообщения
Вы не можете удалять свои сообщения
Вы не можете добавлять вложения

Перейти:  
Для Мосгорсуда, Роскомнадзора и рекламодателей: mosgorsud-torrent[собачка]yandex.ru
 Вход
ppkBB3cker v.2 © 2008-2014 @ PPK
[ Time : 0.550s | 17 Queries | GZIP : Off ]

Торрент трекер RUTOR.IN, Не можете зайти на rutor.org? Какой новый адрес рутор? Какое зеркало рутор? Не работает rutor.org и зеркала? Тогда наш торрент специально для вас. Rutor.in неофициальное зеркало rutor. В случае если у Вас заблокирован rutor или вдруг Вы не можете на него зайти, то Вы без труда сможете скачать бесплатно и без рекламы последние новинки кино, игр, сериалов и прочего у нас, на Rutor.in. Не нужно использовать прокси, чтобы зайти на рутор, достаточно воспользоваться нашим ресурсом. Все новые фильмы, игры, сериалы, книги и музыка за 2013 и 2014 годы через торрент бесплатно. Скачивайте фильмы в хорошем качестве, игры для пк, xbox, playstation без регистрации. У нас вы найдете новые Зарубежные сериалы и Русские сериалы 2013, 2014, 2015 годов. Оставайтесь с нами, качайте любимые фильмы, игры, сериалы, книги и музыку.