img image001 image001 image001 image001 image001 image001 image001 image001 image001 image001 image001 image001 image001 image001 image001

Planets Sun Sun Sun
Статистика раздачи
Автор: Nickolas3434 | Размер: 745.24 МБ | Добавлен: 27 авг 2014
Раздают: 115    Качают: 15
Скачать торрент
Скачать торрент
Описание торрента

СообщениеДобавлено: 27 авг 2014 

Информация о фильме
Название: 07-й меняет курс
Год выхода: 2007
Жанр: Боевик, драма
Режиссер: Владимир Потапов
В ролях: Сергей Маховиков, Анна Тараторкина, Сергей Баталов, Дмитрий Муляр, Владимир Меньшов, Борис Клюев, Рамиль Сабитов, Александр Рапопорт, Георгий Мартиросян, Михаил Жигалов, Ярослав Потапов, Борис Галкин, Роман Мадянов, Игорь Воробьев, Михаил Ремизов, Юрий Осипов, Анатолий Котенев, Наталья Унгард, Игорь Старосельцев, Валерий Афанасьев, Александр Клюквин, Владимир Никитин, Олег Шеремет-Доска, Виктор Тереля, Владимир Денисов, Виктор Пипа, Самвел Асатрян, Батраз Годзоев, Александр Терешко, Елена Бушуева, Дмитрий Калачев, Владимир Кондратьев
О фильме:
Самолет "Ту-160", оснащенный новейшим противорадарным комплексом "Горгона", готовят к совместным с НАТО военным учениям в Атлантическом океане. К этим же учениям одновременно готовятся международные террористы. С помощью системы спутникового перехвата им удается взять управление самолетом в свои руки. Они начинают вести его на свою базу, расположенную на одном из океанских островов. Высшее военное командование страны готово к тому, чтобы сбить самолет. Но капитан "Ту-160" убеждает Верховного главнокомандующего дать экипажу время попытаться разблокировать управление и предотвратить пуск ракеты на американскую базу.
Страна: Россия
Продолжительность: 01:31:28
Перевод: Не требуется
Файл
Кодек: XviD
Качество: DVDRip
Видео: 720x384 (1.88:1), 25 fps, XviD build 73 ~1001 kbps avg, 0.14 bit/pixel
Звук: 48 kHz, MPEG Layer 3, 2 ch, ~128.00 kbps avg
Субтитры: Нет
Семпл
Общее
Полное имя : D:ТоррентМОЯ РАЗДАЧА�7-й меняет курс�7j.menyaet.kurs.2007.Шкипер.avi
Формат : AVI
Формат/Информация : Audio Video Interleave
Размер файла : 745 Мбайт
Продолжительность : 1 ч. 31 м.
Общий поток : 1139 Кбит/сек
Программа кодирования : VirtualDubMod 1.5.10.3 | www.virtualdub-fr.org || (build 2550/release)
Библиотека кодирования : VirtualDubMod build 2550/release
Видео
Идентификатор : 0
Формат : MPEG-4 Visual
Профиль формата : Advanced Simple@L5
Параметр BVOP формата : 1
Параметр QPel формата : Нет
Параметр GMC формата : Без точки перехода
Параметр матрицы формата : Default (MPEG)
Идентификатор кодека : XVID
Идентификатор кодека/Подсказка : XviD
Продолжительность : 1 ч. 31 м.
Битрейт : 1001 Кбит/сек
Ширина : 720 пикселей
Высота : 384 пикселя
Соотношение сторон : 1,85:1
Частота кадров : 25,000 кадров/сек
Цветовое пространство : YUV
Субдискретизация насыщенности : 4:2:0
Битовая глубина : 8 бит
Тип развёртки : Прогрессивная
Метод сжатия : С потерями
Бит/(Пиксели*Кадры) : 0.145
Размер потока : 655 Мбайт (88%)
Библиотека кодирования : XviD 73
Аудио
Идентификатор : 1
Формат : MPEG Audio
Версия формата : Version 1
Профиль формата : Layer 3
Идентификатор кодека : 55
Идентификатор кодека/Подсказка : MP3
Продолжительность : 1 ч. 31 м.
Вид битрейта : Постоянный
Битрейт : 128 Кбит/сек
Каналы : 2 канала
Частота : 48,0 КГц
Метод сжатия : С потерями
Размер потока : 83,7 Мбайт (11%)
Выравнивание : Соединение по промежуткам
Продолжительность промежутка : 40 мс. (1,00 видеокадр)
Время предзагрузки промежутка : 504 мс.
Библиотека кодирования : LAME3.99r
Настройки программы : -m s -V 4 -q 0 -lowpass 17 -b 128

Релиз от:



   Похожие торренты   Торрент   Размер 
В этой теме нет новых непрочитанных сообщений. 07-й меняет курс (2007) DVDRip

86 | 12

1.37 ГБ

В этой теме нет новых непрочитанных сообщений. 07-й меняет курс (2007) DVDRip от cinemastreet | КПК

2 | 2

261.44 МБ

В этой теме нет новых непрочитанных сообщений. 07-й меняет курс (2007) DVDRip - FLGroup

0 | 2

708.15 МБ

В этой теме нет новых непрочитанных сообщений. 07-й меняет курс (2007) DVDRip-AVC от Тorrent-Хzona

75 | 4

1.41 ГБ

В этой теме нет новых непрочитанных сообщений. 07-й меняет курс (2007) DVD5

67 | 2

3.72 ГБ

В этой теме нет новых непрочитанных сообщений. Флагман меняет курс / Counterstrike (2002) DVDRip от Киномагия

11 | 4

1.37 ГБ

В этой теме нет новых непрочитанных сообщений. Огулов А.Т. Курс лекций по терапии внутренних органов методом ручного воздействия (2007) DVDRip

94 | 43

5.08 ГБ




Вы не можете начинать темы
Вы не можете отвечать на сообщения
Вы не можете редактировать свои сообщения
Вы не можете удалять свои сообщения
Вы не можете добавлять вложения

Перейти:  
Для Мосгорсуда, Роскомнадзора и рекламодателей: mosgorsud-torrent[собачка]yandex.ru
 Вход
ppkBB3cker v.2 © 2008-2014 @ PPK
[ Time : 0.042s | 15 Queries | GZIP : Off ]

Торрент трекер RUTOR.IN, Не можете зайти на rutor.org? Какой новый адрес рутор? Какое зеркало рутор? Не работает rutor.org и зеркала? Тогда наш торрент специально для вас. Rutor.in неофициальное зеркало rutor. В случае если у Вас заблокирован rutor или вдруг Вы не можете на него зайти, то Вы без труда сможете скачать бесплатно и без рекламы последние новинки кино, игр, сериалов и прочего у нас, на Rutor.in. Не нужно использовать прокси, чтобы зайти на рутор, достаточно воспользоваться нашим ресурсом. Все новые фильмы, игры, сериалы, книги и музыка за 2013 и 2014 годы через торрент бесплатно. Скачивайте фильмы в хорошем качестве, игры для пк, xbox, playstation без регистрации. У нас вы найдете новые Зарубежные сериалы и Русские сериалы 2013, 2014, 2015 годов. Оставайтесь с нами, качайте любимые фильмы, игры, сериалы, книги и музыку.