img image001 image001 image001 image001 image001 image001 image001 image001 image001 image001 image001 image001 image001 image001 image001

Planets Sun Sun Sun
Статистика раздачи
Автор: Nickolas3434 | Размер: 745.08 МБ | Добавлен: 28 авг 2014
Раздают: 139    Качают: 6
Скачать торрент
Скачать торрент
Описание торрента

СообщениеДобавлено: 28 авг 2014 

Информация о фильме
Название: Я подарю тебе любовь
Год выхода: 2014
Режиссер: Игорь Кечаев
В ролях: Елена Дудина, Александр Пашков, Олеся Бойко, Тамара Сёмина, Степан Бекетов
О фильме:
Борис призван на срочную службу в "горячую точку". Дома его ждет невеста Лариса, но вскоре приходит письмо, в котором сообщается, что он пропал без вести. Друг Бориса Николай, который был тайно влюблен в Ларису, начинает настойчиво ухаживать за ней и наконец делает предложение. Девушка вынуждена его принять. Накануне ее свадьбы неожиданно возвращается Борис. Их чувства друг к другу не остыли, но узнав, что возлюбленная собирается замуж, молодой человек снова исчезает…
Страна: Россия
Студия: Компания «ВайТ Медиа», ООО "Продюсерский центр Триумф"
Продолжительность: 01:29:50
Перевод: Не требуется
Файл
Кодек: XviD
Качество: HDTVRip (Рип с HDTVRip 720p)
Видео: 720x400 (1.80:1), 25 fps, XviD build 73 ~1021 kbps avg, 0.14 bit/pixel
Звук: 48 kHz, MPEG Layer 3, 2 ch, ~128.00 kbps avg
Субтитры: Нет
Семпл
Общее
Полное имя : D:ТоррентМОЯ РАЗДАЧАЯ подарю тебе любовьYa.podaryu.tebe.lyubov.HDTVRip.Шкипер.avi
Формат : AVI
Формат/Информация : Audio Video Interleave
Размер файла : 745 Мбайт
Продолжительность : 1 ч. 29 м.
Общий поток : 1160 Кбит/сек
Программа кодирования : VirtualDubMod 1.5.10.3 | www.virtualdub-fr.org || (build 2550/release)
Библиотека кодирования : VirtualDubMod build 2550/release
Видео
Идентификатор : 0
Формат : MPEG-4 Visual
Профиль формата : Advanced Simple@L5
Параметр BVOP формата : 1
Параметр QPel формата : Нет
Параметр GMC формата : Без точки перехода
Параметр матрицы формата : Default (MPEG)
Идентификатор кодека : XVID
Идентификатор кодека/Подсказка : XviD
Продолжительность : 1 ч. 29 м.
Битрейт : 1022 Кбит/сек
Ширина : 720 пикселей
Высота : 400 пикселей
Соотношение сторон : 16:9
Частота кадров : 25,000 кадров/сек
Цветовое пространство : YUV
Субдискретизация насыщенности : 4:2:0
Битовая глубина : 8 бит
Тип развёртки : Прогрессивная
Метод сжатия : С потерями
Бит/(Пиксели*Кадры) : 0.142
Размер потока : 657 Мбайт (88%)
Библиотека кодирования : XviD 73
Аудио
Идентификатор : 1
Формат : MPEG Audio
Версия формата : Version 1
Профиль формата : Layer 3
Идентификатор кодека : 55
Идентификатор кодека/Подсказка : MP3
Продолжительность : 1 ч. 29 м.
Вид битрейта : Постоянный
Битрейт : 128 Кбит/сек
Каналы : 2 канала
Частота : 48,0 КГц
Метод сжатия : С потерями
Размер потока : 82,2 Мбайт (11%)
Выравнивание : Соединение по промежуткам
Продолжительность промежутка : 40 мс. (1,00 видеокадр)
Время предзагрузки промежутка : 504 мс.
Библиотека кодирования : LAME3.99r
Настройки программы : -m s -V 4 -q 0 -lowpass 17 -b 128

Релиз от:



   Похожие торренты   Торрент   Размер 
В этой теме нет новых непрочитанных сообщений. Я подарю тебе любовь (2013) HDTVRip от MediaClub

63 | 9

944.62 МБ

В этой теме нет новых непрочитанных сообщений. Я подарю тебе любовь (2013) HDTVRip 720p от MediaClub

161 | 17

2.43 ГБ

В этой теме нет новых непрочитанных сообщений. Я подарю тебе любовь (2014) SATRip от Кинозал

1026 | 153

1.17 ГБ

В этой теме нет новых непрочитанных сообщений. Я подарю тебе любовь (2013) HDTV 1080i от MediaClub

35 | 6

5.42 ГБ

В этой теме нет новых непрочитанных сообщений. Витас - Я подарю тебе весь мир, Ч. 2 (История моей любви) (2014) MP3 от AGR - Generalfilm

189 | 15

118.86 МБ

В этой теме нет новых непрочитанных сообщений. Я отдам тебе свою первую любовь / Я дарю тебе свою первую любовь / Boku no Hatsukoi wo Kimi ni Sasagu / I give my first love to you (2009) DVDRip

195 | 4

1.37 ГБ

В этой теме нет новых непрочитанных сообщений. Я отдам тебе свою первую любовь / Я дарю тебе свою первую любовь / Boku no Hatsukoi wo Kimi ni Sasagu / I give my first love to you (2009) DVDRip | L1

14 | 9

1.17 ГБ




Вы не можете начинать темы
Вы не можете отвечать на сообщения
Вы не можете редактировать свои сообщения
Вы не можете удалять свои сообщения
Вы не можете добавлять вложения

Перейти:  
Для Мосгорсуда, Роскомнадзора и рекламодателей: mosgorsud-torrent[собачка]yandex.ru
 Вход
ppkBB3cker v.2 © 2008-2014 @ PPK
[ Time : 0.029s | 15 Queries | GZIP : Off ]

Торрент трекер RUTOR.IN, Не можете зайти на rutor.org? Какой новый адрес рутор? Какое зеркало рутор? Не работает rutor.org и зеркала? Тогда наш торрент специально для вас. Rutor.in неофициальное зеркало rutor. В случае если у Вас заблокирован rutor или вдруг Вы не можете на него зайти, то Вы без труда сможете скачать бесплатно и без рекламы последние новинки кино, игр, сериалов и прочего у нас, на Rutor.in. Не нужно использовать прокси, чтобы зайти на рутор, достаточно воспользоваться нашим ресурсом. Все новые фильмы, игры, сериалы, книги и музыка за 2013 и 2014 годы через торрент бесплатно. Скачивайте фильмы в хорошем качестве, игры для пк, xbox, playstation без регистрации. У нас вы найдете новые Зарубежные сериалы и Русские сериалы 2013, 2014, 2015 годов. Оставайтесь с нами, качайте любимые фильмы, игры, сериалы, книги и музыку.