img image001 image001 image001 image001 image001 image001 image001 image001 image001 image001 image001 image001 image001 image001 image001

Planets Sun Sun Sun
Статистика раздачи
Автор: Nickolas3434 | Размер: 1.46 ГБ | Добавлен: 29 авг 2014
Раздают: 155    Качают: 16
Скачать торрент
Скачать торрент
Описание торрента

СообщениеДобавлено: 29 авг 2014 

«Не ради мести, а во имя справедливости...»



Страна: Россия
Производство: НТВ-Профит
Жанр: драма, криминал
Год выпуска: 1999
Продолжительность: 01:34:40
Перевод: не требуется
Оригинальная аудиодорожка: русский
Cубтитры: нет
Режиссер: Станислав Говорухин
В ролях:
Михаил Ульянов, Анна Синякина, Александр Пороховщиков, Сергей Гармаш, Ирина Розанова, Марат Башаров, Алексей Макаров, Илья Древнов, Владислав Галкин...
Описание:
Пенсионер, железнодорожник в отставке, скромно живёт со своей внучкой Катей. В соседнем доме постоянно собираются трое молодых бездельников, чувствующие себя безнаказанными хозяевами жизни. Однажды они хитростью заманили Катю к себе, где изнасиловали. Поначалу насильников арестовывают, однако отец одного из них — большой милицейский начальник — освобождает их. После безуспешных попыток наказать преступников законным путём, Иван Фёдорович посчитал своим долгом восстановить справедливость сам…





Исходник: DVD5 R5
Тип релиза: DVDRip
Контейнер: AVI
Видео: 720x528 (4:3), 25 fps, XviD ~ 1746 kbps avg, 0.184 bit/pixel
Аудио: 48 kHz, Dolby Digital AC3 5.1, 448 kbps
Раздача от:
Общее
Полное имя : Voroshilovskiy.strelok.1999.DVDRip_[New-team]_by_AVP_Studio.avi
Формат : AVI
Формат/Информация : Audio Video Interleave
Размер файла : 1,46 Гбайт
Продолжительность : 1 ч. 34 м.
Общий поток : 2203 Кбит/сек
Программа кодирования : VirtualDubModRus 1.5.10.2 (build 2542/release)
Библиотека кодирования : VirtualDubMod build 2542/release
Видео
Идентификатор : 0
Формат : MPEG-4 Visual
Профиль формата : Advanced Simple@L5
Параметр BVOP формата : 1
Параметр QPel формата : Нет
Параметр GMC формата : Без точки перехода
Параметр матрицы формата : Выборочная
Идентификатор кодека : XVID
Идентификатор кодека/Подсказка : XviD
Продолжительность : 1 ч. 34 м.
Битрейт : 1746 Кбит/сек
Ширина : 720 пикселей
Высота : 528 пикселей
Соотношение сторон : 4:3
Частота кадров : 25,000 кадров/сек
Цветовое пространство : YUV
Субдискретизация насыщенности : 4:2:0
Битовая глубина : 8 бит
Тип развёртки : Прогрессивная
Метод сжатия : С потерями
Бит/(Пиксели*Кадры) : 0.184
Размер потока : 1,15 Гбайт (79%)
Библиотека кодирования : XviD 73
Аудио
Идентификатор : 1
Формат : AC-3
Формат/Информация : Audio Coding 3
Расширение режима : CM (complete main)
Параметр Endianness формата : Big
Идентификатор кодека : 2000
Продолжительность : 1 ч. 34 м.
Вид битрейта : Постоянный
Битрейт : 448 Кбит/сек
Каналы : 6 каналов
Расположение каналов : Front: L C R, Side: L R, LFE
Частота : 48,0 КГц
Битовая глубина : 16 бит
Метод сжатия : С потерями
Размер потока : 303 Мбайт (20%)
Выравнивание : Разделение по промежуткам
Продолжительность промежутка : 40 мс. (1,00 видеокадр)
Время предзагрузки промежутка : 500 мс





   Похожие торренты   Торрент   Размер 
В этой теме нет новых непрочитанных сообщений. Ворошиловский стрелок (1999) DVDRip от New-Team

47 | 16

745.18 МБ

В этой теме нет новых непрочитанных сообщений. Ворошиловский стрелок (1999) DVDRip-AVC от New-Team

248 | 29

1.46 ГБ

В этой теме нет новых непрочитанных сообщений. Ворошиловский стрелок (1999) DVDRip

96 | 11

662.92 МБ

В этой теме нет новых непрочитанных сообщений. Ворошиловский стрелок (1999) DVDRip

364 | 18

1.36 ГБ

В этой теме нет новых непрочитанных сообщений. Ворошиловский стрелок (1999) DVDRip-AVC от ExKinoRay

421 | 60

2.18 ГБ

В этой теме нет новых непрочитанных сообщений. Ворошиловский стрелок / (1999) DVDRip от KINOREAKTOR

407 | 23

1.37 ГБ

В этой теме нет новых непрочитанных сообщений. Ворошиловский стрелок (1999) DVD5

27 | 6

4.14 ГБ




Вы не можете начинать темы
Вы не можете отвечать на сообщения
Вы не можете редактировать свои сообщения
Вы не можете удалять свои сообщения
Вы не можете добавлять вложения

Перейти:  
Для Мосгорсуда, Роскомнадзора и рекламодателей: mosgorsud-torrent[собачка]yandex.ru
 Вход
ppkBB3cker v.2 © 2008-2014 @ PPK
[ Time : 0.034s | 15 Queries | GZIP : Off ]

Торрент трекер RUTOR.IN, Не можете зайти на rutor.org? Какой новый адрес рутор? Какое зеркало рутор? Не работает rutor.org и зеркала? Тогда наш торрент специально для вас. Rutor.in неофициальное зеркало rutor. В случае если у Вас заблокирован rutor или вдруг Вы не можете на него зайти, то Вы без труда сможете скачать бесплатно и без рекламы последние новинки кино, игр, сериалов и прочего у нас, на Rutor.in. Не нужно использовать прокси, чтобы зайти на рутор, достаточно воспользоваться нашим ресурсом. Все новые фильмы, игры, сериалы, книги и музыка за 2013 и 2014 годы через торрент бесплатно. Скачивайте фильмы в хорошем качестве, игры для пк, xbox, playstation без регистрации. У нас вы найдете новые Зарубежные сериалы и Русские сериалы 2013, 2014, 2015 годов. Оставайтесь с нами, качайте любимые фильмы, игры, сериалы, книги и музыку.