img image001 image001 image001 image001 image001 image001 image001 image001 image001 image001 image001 image001 image001 image001 image001

Planets Sun Sun Sun
Статистика раздачи
Автор: Nickolas3434 | Размер: 7.28 ГБ | Добавлен: 31 авг 2014
Раздают: 13    Качают: 6
Скачать торрент
Скачать торрент
Описание торрента

СообщениеДобавлено: 31 авг 2014 

Информация о фильме
Название: Май
Год выхода: 2007
Жанр: Драма, мелодрама, военный
Режиссёр: Марат Рафиков, Илья Рубинштейн
В ролях: Андрей Кузичев, Виктория Толстоганова, Андрей Мерзликин, Ирина Розанова, Лариса Лужина, Алексей Панин, Станислав Дужников, Геннадий Назаров, Алиса Гребенщикова, Алексей Кравченко
О фильме: Три дня в яркой майской Москве. Три дня, когда старший лейтенант Печалин, уже давно позабывший запах мирной жизни, вновь ощутит всю ее прелесть. Встретится со старым другом Гаевским, влюбится в случайную знакомую Викторию, отметит с ней День Победы и станцует романтический вальс на площади Большого театра…

Выпущено: TV-Movie, Россия
Продолжительность: 01:34:05
Перевод: Не требуется
Файл
Качество:DVD-9
Видео: MPEG2, PAL, 720x576 (16:9), 25 кадр/с, 8300 Кбит/с, VBR
Аудио #1: Русский, Dolby AC3, 48000 Гц, 448 Кбит/с, 6 каналов (5.1)
Аудио #2: Русский, Dolby AC3, 48000 Гц, 192 Кбит/с, 2 канала (Стерео)
Аудио #3: Русский, DTS, 48000 Гц, 768 Кбит/с, 6 каналов (5.1)
Субтитры: Русские
Доп. материалы: Фильм о фильм, Киножурнал - "Смотрите на DVD"

Title:
Size: 7.28 Gb ( 7 634 746 KBytes ) - DVD-9
Enabled regions: 1, 2, 3, 4, 5, 6, 7, 8
VTS_01 :
Play Length: 00:00:15
Video: PAL 4:3 (720x576) VBR
Audio:
Russian (Dolby AC3, 2 ch)
Russian (Dolby AC3, 2 ch)
Russian (Dolby AC3, 2 ch)
Subtitles:
Russian
Russian
VTS_02 :
Play Length: 00:00:03
Video: PAL 16:9 (720x576) VBR, Auto Pan&Scan
Audio:
Russian (Dolby AC3, 2 ch)
Russian (Dolby AC3, 2 ch)
Russian (Dolby AC3, 2 ch)
Subtitles:
Russian
Russian
VTS_03 :
Play Length: 00:02:28
Video: PAL 4:3 (720x576) VBR
Audio:
Russian (Dolby AC3, 2 ch)
Russian (Dolby AC3, 2 ch)
Russian (Dolby AC3, 2 ch)
Subtitles:
Russian
Russian
VTS_04 :
Play Length: 00:01:06
Video: PAL 4:3 (720x576) VBR
Audio:
Russian (Dolby AC3, 2 ch)
Russian (Dolby AC3, 2 ch)
Russian (Dolby AC3, 2 ch)
Subtitles:
Russian
Russian
VTS_05 :
Play Length: 00:01:44
Video: PAL 4:3 (720x576) VBR
Audio:
Russian (Dolby AC3, 2 ch)
Russian (Dolby AC3, 2 ch)
Russian (Dolby AC3, 2 ch)
Subtitles:
Russian
Russian
VTS_06 :
Play Length: 01:34:05
Video: PAL 16:9 (720x576) VBR, Auto Pan&Scan
Audio:
Russian (Dolby AC3, 6 ch)
Russian (Dolby AC3, 2 ch)
Russian (DTS, 5 ch)
Subtitles:
Russian
Russian
VTS_07 :
Play Length: 00:23:00
Video: PAL 4:3 (720x576) VBR
Audio:
Russian (Dolby AC3, 2 ch)
Russian (Dolby AC3, 2 ch)
Russian (Dolby AC3, 2 ch)
Subtitles:
Russian
Russian
VTS_08 :
Play Length: 00:02:28
Video: PAL 4:3 (720x576) VBR
Audio:
Russian (Dolby AC3, 2 ch)
Russian (Dolby AC3, 2 ch)
Russian (Dolby AC3, 2 ch)
Subtitles:
Russian
Russian
VTS_09 :
Play Length: 00:01:06
Video: PAL 4:3 (720x576) VBR
Audio:
Russian (Dolby AC3, 2 ch)
Russian (Dolby AC3, 2 ch)
Russian (Dolby AC3, 2 ch)
Subtitles:
Russian
Russian
VTS_10 :
Play Length: 00:01:44
Video: PAL 4:3 (720x576) VBR
Audio:
Russian (Dolby AC3, 2 ch)
Russian (Dolby AC3, 2 ch)
Russian (Dolby AC3, 2 ch)
Subtitles:
Russian
Russian
Menu Video:
PAL 16:9 (720x576) VBR
Menu Subtitles:
Not specified
Menu English Language Unit :
Root Menu
Chapter (PTT) Menu
Subpicture Menu
Audio Menu
General
Complete name : VTS_06_1.VOB
Format : MPEG-PS
File size : 1 024 MiB
Duration : 17mn 6s
Overall bit rate : 8 368 Kbps
Video
ID : 224 (0xE0)
Format : MPEG Video
Format version : Version 2
Format profile : Main@Main
Format settings, BVOP : Yes
Format settings, Matrix : Default
Format settings, GOP : M=3, N=12
Duration : 17mn 6s
Bit rate mode : Variable
Bit rate : 6 807 Kbps
Nominal bit rate : 8 300 Kbps
Width : 720 pixels
Height : 576 pixels
Display aspect ratio : 16:9
Frame rate : 25.000 fps
Standard : PAL
Color space : YUV
Chroma subsampling : 4:2:0
Bit depth : 8 bits
Scan type : Interlaced
Scan order : Top Field First
Compression mode : Lossy
Bits/(Pixel*Frame) : 0.657
Stream size : 833 MiB (81%)
Audio #1
ID : 189 (0xBD)-128 (0x80)
Format : AC-3
Format/Info : Audio Coding 3
Mode extension : CM (complete main)
Muxing mode : DVD-Video
Duration : 17mn 6s
Bit rate mode : Constant
Bit rate : 448 Kbps
Channel(s) : 6 channels
Channel positions : Front: L C R, Side: L R, LFE
Sampling rate : 48.0 KHz
Bit depth : 16 bits
Compression mode : Lossy
Stream size : 54.8 MiB (5%)
Audio #2
ID : 189 (0xBD)-129 (0x81)
Format : AC-3
Format/Info : Audio Coding 3
Mode extension : CM (complete main)
Muxing mode : DVD-Video
Duration : 17mn 6s
Bit rate mode : Constant
Bit rate : 192 Kbps
Channel(s) : 2 channels
Channel positions : Front: L R
Sampling rate : 48.0 KHz
Bit depth : 16 bits
Compression mode : Lossy
Stream size : 23.5 MiB (2%)
Audio #3
ID : 189 (0xBD)-138 (0x8A)
Format : DTS
Format/Info : Digital Theater Systems
Muxing mode : DVD-Video
Duration : 17mn 6s
Bit rate mode : Constant
Bit rate : 755 Kbps
Channel(s) : 6 channels
Channel positions : Front: L C R, Side: L R, LFE
Sampling rate : 48.0 KHz
Bit depth : 24 bits
Compression mode : Lossy
Stream size : 92.3 MiB (9%)
Menu



   Похожие торренты   Торрент   Размер 
В этой теме нет новых непрочитанных сообщений. Лицензия на брак / License to Wed (2007) BDRip от HQ-ViDEO | P | Лицензия

222 | 13

1.45 ГБ

В этой теме нет новых непрочитанных сообщений. Crysis [v.1.2] (2007) PC | Лицензия

1598 | 208

6.1 ГБ

В этой теме нет новых непрочитанных сообщений. TimeShift (2007) PC | Лицензия

76 | 20

5.7 ГБ

В этой теме нет новых непрочитанных сообщений. Stranglehold (2007) PC | Лицензия

27 | 13

13.52 ГБ

В этой теме нет новых непрочитанных сообщений. Maelstrom (2007) PC | Лицензия

24 | 5

4.65 ГБ

В этой теме нет новых непрочитанных сообщений. Ядерные твари (2007) PC | Лицензия

13 | 3

970.36 МБ

В этой теме нет новых непрочитанных сообщений. Пекло / Burn (2007) PC | Лицензия

82 | 6

382.82 МБ




Вы не можете начинать темы
Вы не можете отвечать на сообщения
Вы не можете редактировать свои сообщения
Вы не можете удалять свои сообщения
Вы не можете добавлять вложения

Перейти:  
Для Мосгорсуда, Роскомнадзора и рекламодателей: mosgorsud-torrent[собачка]yandex.ru
 Вход
ppkBB3cker v.2 © 2008-2014 @ PPK
[ Time : 0.041s | 16 Queries | GZIP : Off ]

Торрент трекер RUTOR.IN, Не можете зайти на rutor.org? Какой новый адрес рутор? Какое зеркало рутор? Не работает rutor.org и зеркала? Тогда наш торрент специально для вас. Rutor.in неофициальное зеркало rutor. В случае если у Вас заблокирован rutor или вдруг Вы не можете на него зайти, то Вы без труда сможете скачать бесплатно и без рекламы последние новинки кино, игр, сериалов и прочего у нас, на Rutor.in. Не нужно использовать прокси, чтобы зайти на рутор, достаточно воспользоваться нашим ресурсом. Все новые фильмы, игры, сериалы, книги и музыка за 2013 и 2014 годы через торрент бесплатно. Скачивайте фильмы в хорошем качестве, игры для пк, xbox, playstation без регистрации. У нас вы найдете новые Зарубежные сериалы и Русские сериалы 2013, 2014, 2015 годов. Оставайтесь с нами, качайте любимые фильмы, игры, сериалы, книги и музыку.
cron