img image001 image001 image001 image001 image001 image001 image001 image001 image001 image001 image001 image001 image001 image001 image001

Planets Sun Sun Sun
Статистика раздачи
Автор: Nickolas3434 | Размер: 3.29 ГБ | Добавлен: 02 сен 2014
Раздают: 2237    Качают: 95
Скачать торрент
Скачать торрент
Описание торрента

СообщениеДобавлено: 02 сен 2014 

Информация о фильме
Название: Поддубный
Год выхода: 2014
Жанр: драма, спорт, биография
Режиссер: Глеб Орлов
В ролях: Михаил Пореченков, Катерина Шпица, Александр Михайлов, Роман Мадянов, Михаил Крылов, Терри Бёрд, Стивен Бент, Владимир Ильин, Юрий Колокольников, Дени Лаван
О фильме: Его называли Чемпион чемпионов. О силе и волевом характере Поддубного слагали легенды. И в 50 великий борец играючи одолевал молодых атлетов, а вопросах чести и справедливости не знал компромиссов. И лишь любовь смогла уложить Русского Богатыря на обе лопатки…

Выпущено: Студия Тритэ
Продолжительность: 01:57:41
Перевод: Оригинал (лицензия)
Файл
Кодек: x264
Качество: BDRip (источник: Blu-ray Disc)
Видео: 1280x540 (2,40:1), 25 fps, 3360 kbps
Аудио: AC-3, 6 ch, 640 kbps
Скачать: сэмпл
Скриншоты

Общее
Уникальный идентификатор : 200130922076825824916916104500350535062 (0x968FD045A2C7090E8BA991073657C596)
Полное имя : Poddubnyy.2014.BDRip.720p.Rus.mkv
Формат : Matroska
Версия формата : Version 2
Размер файла : 3,29 Гбайт
Продолжительность : 1 ч. 57 м.
Общий поток : 4003 Кбит/сек
Название фильма : Поддубный (2014)
Дата кодирования : UTC 2014-08-31 14:47:36
Программа кодирования : mkvmerge v5.8.0 ('No Sleep / Pillow') built on Sep 2 2012 15:37:04
Библиотека кодирования : libebml v1.2.3 + libmatroska v1.3.0
Видео
Идентификатор : 1
Формат : AVC
Формат/Информация : Advanced Video Codec
Профиль формата : High@L4.1
Параметр CABAC формата : Да
Параметр ReFrames формата : 11 кадров
Идентификатор кодека : V_MPEG4/ISO/AVC
Продолжительность : 1 ч. 57 м.
Битрейт : 3361 Кбит/сек
Ширина : 1280 пикселей
Высота : 540 пикселей
Соотношение сторон : 2,40:1
Режим частоты кадров : Постоянный
Частота кадров : 25,000 кадров/сек
Цветовое пространство : YUV
Субдискретизация насыщенности : 4:2:0
Битовая глубина : 8 бит
Тип развёртки : Прогрессивная
Бит/(Пиксели*Кадры) : 0.195
Размер потока : 2,70 Гбайт (82%)
Заголовок : Release by AlexKa
Библиотека кодирования : x264 core 142 r2453 ea0ca51
Настройки программы : cabac=1 / ref=11 / deblock=1:-3:-3 / analyse=0x3:0x133 / me=umh / subme=11 / psy=1 / psy_rd=1.00:0.00 / mixed_ref=1 / me_range=32 / chroma_me=1 / trellis=2 / 8x8dct=1 / cqm=0 / deadzone=21,11 / fast_pskip=0 / chroma_qp_offset=-2 / threads=12 / lookahead_threads=2 / sliced_threads=0 / nr=0 / decimate=0 / interlaced=0 / bluray_compat=0 / constrained_intra=0 / bframes=7 / b_pyramid=2 / b_adapt=2 / b_bias=0 / direct=3 / weightb=1 / open_gop=0 / weightp=2 / keyint=250 / keyint_min=25 / scenecut=40 / intra_refresh=0 / rc=2pass / mbtree=0 / bitrate=3361 / ratetol=1.0 / qcomp=0.60 / qpmin=0 / qpmax=69 / qpstep=4 / cplxblur=20.0 / qblur=0.5 / ip_ratio=1.40 / pb_ratio=1.30 / aq=1:1.00
Язык : Russian
Аудио
Идентификатор : 2
Формат : AC-3
Формат/Информация : Audio Coding 3
Расширение режима : CM (complete main)
Параметр Endianness формата : Big
Идентификатор кодека : A_AC3
Продолжительность : 1 ч. 57 м.
Вид битрейта : Постоянный
Битрейт : 640 Кбит/сек
Каналы : 6 каналов
Расположение каналов : Front: L C R, Side: L R, LFE
Частота : 48,0 КГц
Битовая глубина : 16 бит
Метод сжатия : С потерями
Размер потока : 539 Мбайт (16%)
Заголовок : Rus
Язык : Russian
Меню
00:00:00.000 : :Chapter 01
00:15:06.560 : :Chapter 02
00:24:31.440 : :Chapter 03
00:32:27.080 : :Chapter 04
00:40:12.400 : :Chapter 05
00:49:37.719 : :Chapter 06
00:55:58.640 : :Chapter 07
01:12:03.000 : :Chapter 08
01:19:30.720 : :Chapter 09
01:28:05.200 : :Chapter 10
01:35:50.000 : :Chapter 11
01:48:47.120 : :Chapter 12
01:57:41.040 : :Chapter 13



   Похожие торренты   Торрент   Размер 
В этой теме нет новых непрочитанных сообщений. Поддубный (2014) BDRip (720p) от Alex1622 | Лицензия

60 | 3

7 ГБ

В этой теме нет новых непрочитанных сообщений. Поддубный (2014) BDRip 720p от HQ-ViDEO | Лицензия

97 | 5

4.79 ГБ

В этой теме нет новых непрочитанных сообщений. Поддубный (2014) BDRip 720p от HQ-ViDEO | Лицензия

1122 | 53

4.79 ГБ

В этой теме нет новых непрочитанных сообщений. Поддубный (2014) BDRip 720p от Leonardo and Scarabey

771 | 45

3.91 ГБ

В этой теме нет новых непрочитанных сообщений. Поддубный (2014) WEB-DL 720p

7753 | 387

3.94 ГБ

В этой теме нет новых непрочитанных сообщений. Поддубный (2014) BDRip

2560 | 60

1.45 ГБ

В этой теме нет новых непрочитанных сообщений. Поддубный (2014) BDRip от ivandubskoj

156 | 29

2.05 ГБ




Вы не можете начинать темы
Вы не можете отвечать на сообщения
Вы не можете редактировать свои сообщения
Вы не можете удалять свои сообщения
Вы не можете добавлять вложения

Перейти:  
Для Мосгорсуда, Роскомнадзора и рекламодателей: mosgorsud-torrent[собачка]yandex.ru
 Вход
ppkBB3cker v.2 © 2008-2014 @ PPK
[ Time : 0.049s | 17 Queries | GZIP : Off ]

Торрент трекер RUTOR.IN, Не можете зайти на rutor.org? Какой новый адрес рутор? Какое зеркало рутор? Не работает rutor.org и зеркала? Тогда наш торрент специально для вас. Rutor.in неофициальное зеркало rutor. В случае если у Вас заблокирован rutor или вдруг Вы не можете на него зайти, то Вы без труда сможете скачать бесплатно и без рекламы последние новинки кино, игр, сериалов и прочего у нас, на Rutor.in. Не нужно использовать прокси, чтобы зайти на рутор, достаточно воспользоваться нашим ресурсом. Все новые фильмы, игры, сериалы, книги и музыка за 2013 и 2014 годы через торрент бесплатно. Скачивайте фильмы в хорошем качестве, игры для пк, xbox, playstation без регистрации. У нас вы найдете новые Зарубежные сериалы и Русские сериалы 2013, 2014, 2015 годов. Оставайтесь с нами, качайте любимые фильмы, игры, сериалы, книги и музыку.
cron