img image001 image001 image001 image001 image001 image001 image001 image001 image001 image001 image001 image001 image001 image001 image001

Planets Sun Sun Sun
Статистика раздачи
Автор: Nickolas3434 | Размер: 1.37 ГБ | Добавлен: 03 сен 2014
Раздают: 19    Качают: 7
Скачать торрент
Скачать торрент
Описание торрента

СообщениеДобавлено: 03 сен 2014 


Информация о фильме
Название: Белый ворон
Год выхода: 1981
Жанр: Мелодрама
Режиссер: Валерий Лонской
В ролях: Владимир Гостюхин, Ирина Дымченко, Александр Михайлов, Ирина Акулова, Лев Борисов, Борис Щербаков, Владимир Земляникин, Виктор Филиппов, Роман Хомятов, Любовь Полищук, Сергей Торкачевский, Валентина Грушина, Тамара Совчи
О фильме:
Шахтер Егор Иконников приезжает на юг, надеясь хорошо отдохнуть и, как говориться, развеяться. Встреча с Соней оказалась началом серьезной любви, изменившей жизнь Егора и замужней женщины, которая сначала не приняла Егора всерьез. Появление Иконникова в доме Сони нарушило привычный ритм жизни их семьи. Молодая женщина готова уйти от мужа, но остается, пожалев слабовольного Аркадия. Познакомившись с уже замужней Соней на юге во время очередного отпуска, герой фильма думал, что встречи легко забудутся. Поняв, что летнее знакомство стало началом серьезной любви, он приезжает в ее город. Но Соня отказывается от счастья и пытается наладить семейную жизнь.
Страна: СССР
Студия: Мосфильм
Продолжительность: 01:33:23
Перевод: Не требуется
Файл
Кодек: XviD
Качество: SATRip
Видео: 1895 Кбит/с, 688x336, 25.000 кадр/с
Звук: АС3, 2 ch, 192 Кбит/с
Полное имя : Belij.voron.1981.XviD.SATRip.1400.avi
Формат : AVI
Формат/Информация : Audio Video Interleave
Размер файла : 1,37 Гбайт
Продолжительность : 1 ч. 33 м.
Общий поток : 2097 Кбит/сек
Программа кодирования : VirtualDubMod 1.5.10.3 | www.virtualdub-fr.org || (build 2550/release)
Библиотека кодирования : VirtualDubMod build 2550/release
Видео
Идентификатор : 0
Формат : MPEG-4 Visual
Профиль формата : Advanced Simple@L5
Параметр BVOP формата : 1
Параметр QPel формата : Нет
Параметр GMC формата : Без точки перехода
Параметр матрицы формата : Выборочная
Идентификатор кодека : XVID
Идентификатор кодека/Подсказка : XviD
Продолжительность : 1 ч. 33 м.
Битрейт : 1895 Кбит/сек
Ширина : 688 пикселей
Высота : 336 пикселей
Соотношение сторон : 2,048
Частота кадров : 25,000 кадров/сек
Цветовое пространство : YUV
Субдискретизация насыщенности : 4:2:0
Битовая глубина : 8 бит
Тип развёртки : Прогрессивная
Метод сжатия : С потерями
Бит/(Пиксели*Кадры) : 0.328
Размер потока : 1,24 Гбайт (90%)
Библиотека кодирования : XviD 64
Аудио
Идентификатор : 1
Формат : AC-3
Формат/Информация : Audio Coding 3
Расширение режима : CM (complete main)
Параметр Endianness формата : Big
Идентификатор кодека : 2000
Продолжительность : 1 ч. 33 м.
Вид битрейта : Постоянный
Битрейт : 192 Кбит/сек
Каналы : 2 канала
Расположение каналов : Front: L R
Частота : 48,0 КГц
Битовая глубина : 16 бит
Метод сжатия : С потерями
Размер потока : 128 Мбайт (9%)
Выравнивание : Разделение по промежуткам
Продолжительность промежутка : 40 мс. (1,00 видеокадр)
Время предзагрузки промежутка : 500 мс.





   Похожие торренты   Торрент   Размер 
В этой теме нет новых непрочитанных сообщений. Белый ворон (1981) SATRip

10 | 4

747.8 МБ

В этой теме нет новых непрочитанных сообщений. Крусанов Павел - Ворон белый. История живых существ (2015) MP3

115 | 3

502.35 МБ

В этой теме нет новых непрочитанных сообщений. Странное дело. Черный ворон степи [эфир от 30.11] (2012) SATRip

6 | 5

569.03 МБ

В этой теме нет новых непрочитанных сообщений. Белый бизон / Белый буйвол / The White Buffalo (1977) DVDRip от SuperTracer

6 | 4

1.37 ГБ

В этой теме нет новых непрочитанных сообщений. Белый песок (2010) SATRip

82 | 3

890.19 МБ

В этой теме нет новых непрочитанных сообщений. Белый песок (2010) SATRip от КинозалSAT

79 | 11

1.17 ГБ

В этой теме нет новых непрочитанных сообщений. Белый человек [01-04] (2012) SATRip от RiperAM

56 | 12

1.97 ГБ




Вы не можете начинать темы
Вы не можете отвечать на сообщения
Вы не можете редактировать свои сообщения
Вы не можете удалять свои сообщения
Вы не можете добавлять вложения

Перейти:  
Для Мосгорсуда, Роскомнадзора и рекламодателей: mosgorsud-torrent[собачка]yandex.ru
 Вход
ppkBB3cker v.2 © 2008-2014 @ PPK
[ Time : 0.223s | 15 Queries | GZIP : Off ]

Торрент трекер RUTOR.IN, Не можете зайти на rutor.org? Какой новый адрес рутор? Какое зеркало рутор? Не работает rutor.org и зеркала? Тогда наш торрент специально для вас. Rutor.in неофициальное зеркало rutor. В случае если у Вас заблокирован rutor или вдруг Вы не можете на него зайти, то Вы без труда сможете скачать бесплатно и без рекламы последние новинки кино, игр, сериалов и прочего у нас, на Rutor.in. Не нужно использовать прокси, чтобы зайти на рутор, достаточно воспользоваться нашим ресурсом. Все новые фильмы, игры, сериалы, книги и музыка за 2013 и 2014 годы через торрент бесплатно. Скачивайте фильмы в хорошем качестве, игры для пк, xbox, playstation без регистрации. У нас вы найдете новые Зарубежные сериалы и Русские сериалы 2013, 2014, 2015 годов. Оставайтесь с нами, качайте любимые фильмы, игры, сериалы, книги и музыку.