img image001 image001 image001 image001 image001 image001 image001 image001 image001 image001 image001 image001 image001 image001 image001

Planets Sun Sun Sun
Статистика раздачи
Автор: Nickolas3434 | Размер: 2.14 ГБ | Добавлен: 09 сен 2014
Раздают: 429    Качают: 33
Скачать торрент
Скачать торрент
Описание торрента

СообщениеДобавлено: 09 сен 2014 

Оригинальное название: Фартовый
Год выхода: 2006
Жанр: Криминал, драма
Режиссер: Владимир Яканин
В ролях: Владимир Епифанцев, Екатерина Вуличенко, Алексей Жарков, Николай Иванов (I), Александр Мохов, Борис Невзоров, Дмитрий Щербина
О фильме: 22-летний Вадим Упоров по доносу осужден на 25 лет по статье 58 и отправлен в один из лагерей ГУЛАГА. По прибытии в лагерь он ссорится с ворами, и с вором в законе Дьяком, который приговаривает его к смерти. Чтобы избежать этой участи, он совершает побег. Побег не удается – его ловят, избивают и кидают в карцер в БУР. В "сейфе" Упоров проводит полгода... Вернувшись в барак, он участвует в конфликте между ворами и "суками" ГУЛАГа. Угрозы воров заставляют нашего героя совершить ещё один побег: он помогает ворам вынести воровскую кассу на "большую землю"... И снова побег раскрыт, в живых остается только Упоров.
Страна: Россия
Студия: ЗАО Народное кино
Продолжительность: 01:32:48
Язык: Русский
Субтитры: Русские
Кодек: MPEG-4 AVC
Качество: DVDRip-AVC
Видео: 768x462, 2849 Кбит/с, 25,000 fps
Звук: AC3, 6 ch, 448 Кбит/с
Субтитры: Русские
Семпл
Общее
Уникальный идентификатор : 250126679086722410044590867621659271917 (0xBC2CA567BF999EB694431C41BDB7E2ED)
Полное имя : F:мои рипыФартовый.2006.x264.DVDRip.(AVC).mkv
Формат : Matroska
Версия формата : Version 4 / Version 2
Размер файла : 2,14 Гбайт
Продолжительность : 1 ч. 32 м.
Общий поток : 3300 Кбит/сек
Название фильма : Фартовый / 2006 / Rip by PowerRock
Дата кодирования : UTC 2014-02-25 13:49:42
Программа кодирования : mkvmerge v6.7.0 ('Back to the Ground') 32bit built on Jan 8 2014 15:03:17
Библиотека кодирования : libebml v1.3.0 + libmatroska v1.4.1
Видео
Идентификатор : 1
Формат : AVC
Формат/Информация : Advanced Video Codec
Профиль формата : High@L4.1
Параметр CABAC формата : Да
Параметр ReFrames формата : 7 кадров
Идентификатор кодека : V_MPEG4/ISO/AVC
Продолжительность : 1 ч. 32 м.
Битрейт : 2849 Кбит/сек
Ширина : 768 пикселей
Высота : 462 пикселя
Соотношение сторон : 1,662
Режим частоты кадров : Постоянный
Частота кадров : 25,000 кадров/сек
Цветовое пространство : YUV
Субдискретизация насыщенности : 4:2:0
Битовая глубина : 8 бит
Тип развёртки : Прогрессивная
Бит/(Пиксели*Кадры) : 0.321
Размер потока : 1,81 Гбайт (84%)
Заголовок : Фартовый / 2006
Библиотека кодирования : x264 core 125 r2200 999b753
Настройки программы : cabac=1 / ref=7 / deblock=1:-2:-1 / analyse=0x3:0x133 / me=umh / subme=10 / psy=1 / psy_rd=1.00:0.10 / mixed_ref=1 / me_range=24 / chroma_me=1 / trellis=2 / 8x8dct=1 / cqm=0 / deadzone=21,11 / fast_pskip=0 / chroma_qp_offset=-3 / threads=6 / lookahead_threads=1 / sliced_threads=0 / nr=0 / decimate=1 / interlaced=0 / bluray_compat=0 / constrained_intra=0 / bframes=5 / b_pyramid=2 / b_adapt=2 / b_bias=0 / direct=3 / weightb=1 / open_gop=0 / weightp=2 / keyint=250 / keyint_min=23 / scenecut=40 / intra_refresh=0 / rc_lookahead=50 / rc=2pass / mbtree=1 / bitrate=2849 / ratetol=1.0 / qcomp=0.60 / qpmin=10 / qpmax=51 / qpstep=4 / cplxblur=20.0 / qblur=0.5 / ip_ratio=1.40 / aq=1:1.00
Default : Да
Forced : Нет
Аудио
Идентификатор : 2
Формат : AC-3
Формат/Информация : Audio Coding 3
Расширение режима : CM (complete main)
Параметр Endianness формата : Big
Идентификатор кодека : A_AC3
Продолжительность : 1 ч. 32 м.
Вид битрейта : Постоянный
Битрейт : 448 Кбит/сек
Каналы : 6 каналов
Расположение каналов : Front: L C R, Side: L R, LFE
Частота : 48,0 КГц
Битовая глубина : 16 бит
Метод сжатия : С потерями
Задержка видео : 360 мс.
Размер потока : 297 Мбайт (14%)
Язык : Russian
Default : Да
Forced : Нет
Текст
Идентификатор : 3
Формат : VobSub
Режим смешивания : zlib
Идентификатор кодека : S_VOBSUB
Идентификатор кодека/Информация : The same subtitle format used on DVDs
Язык : Russian
Default : Да
Forced : Нет






   Похожие торренты   Торрент   Размер 
В этой теме нет новых непрочитанных сообщений. Фартовый (2006) DVDRip от Kaztorrents

107 | 17

749.72 МБ

В этой теме нет новых непрочитанных сообщений. Фартовый (2006) DVDRip-AVC от ExKinoRay

114 | 18

2.14 ГБ

В этой теме нет новых непрочитанных сообщений. Фартовый (2006) DVDRip by Axwel

185 | 20

1.45 ГБ

В этой теме нет новых непрочитанных сообщений. Сборник - Фартовый XXXL (2006) MP3

36 | 3

695.24 МБ

В этой теме нет новых непрочитанных сообщений. Крылья России. Звезды Гидроавиасалона 1996-2006 (2006) DVDRip-AVC от Тorrent-Хzona

1 | 4

743.37 МБ

В этой теме нет новых непрочитанных сообщений. Чемпионаты мира по футболу 1930-2006 / FIFA WORLD CUP 1930-2006 [15х15] (2010) DVDRip от KinoZalSat

11 | 5

1.37 ГБ

В этой теме нет новых непрочитанных сообщений. Чемпионаты мира по футболу 1930-2006 / FIFA WORLD CUP 1930-2006 [14х15] (2010) DVDRip от KinoZalSat

3 | 6

1.37 ГБ




Вы не можете начинать темы
Вы не можете отвечать на сообщения
Вы не можете редактировать свои сообщения
Вы не можете удалять свои сообщения
Вы не можете добавлять вложения

Перейти:  
Для Мосгорсуда, Роскомнадзора и рекламодателей: mosgorsud-torrent[собачка]yandex.ru
 Вход
ppkBB3cker v.2 © 2008-2014 @ PPK
[ Time : 0.028s | 16 Queries | GZIP : Off ]

cron