img image001 image001 image001 image001 image001 image001 image001 image001 image001 image001 image001 image001 image001 image001 image001

Planets Sun Sun Sun
Статистика раздачи
Автор: Nickolas3434 | Размер: 7.7 ГБ | Добавлен: 09 сен 2014
Раздают: 234    Качают: 97
Скачать торрент
Скачать торрент
Описание торрента

СообщениеДобавлено: 09 сен 2014 

Информация о фильме
Название: Зеркало
Год выхода: 1974
Жанр: драма, биография, история
Режиссер: Андрей Тарковский
В ролях: Маргарита Терехова, Олег Янковский, Филипп Янковский, Игнат Данильцев, Николай Гринько, Алла Демидова, Юрий Назаров, Анатолий Солоницын, Лариса Тарковская, Тамара Огородникова
О фильме:
Герой картины мучительно боится потерять любовь и понимание близких людей: матери, любимой женщины, сына. И чувствует, что жизнь с каждым днем все дальше уводит их друг от друга. Пытаясь сохранить семью, он обращается памятью к самым сильным впечатлениям своего детства, стараясь в том, детском, мировосприятии найти опору и оправдание своим сегодняшним переживаниям.
Рип сделан с японского диска - есть мнение что там картинка качественнее. Т.к. на нем аудиодорожка была стерео и имела битрейт 1.5мб я принял решение просто сжать её до 640кб и оставить здесь, хотя можно было бы взять аудио с нашего блюрея - там звук многоканальный. Но изначально фильм вообще моно - что там разбивать на 5 каналов я не очень понимаю.

Страна: СССР
Студия: Мосфильм
Продолжительность: 01:47:01
Перевод: Оригинал

Файл
Кодек: h.265
Качество: BDRip 1080p
Видео: 1552x1080, 9664 Kbps, 23.976 fps, 0.240 Bits/(Pixel*Frame)
Звук: AC3, 640 Kbps
Format : Matroska
Format version : Version 4 / Version 2
File size : 7.70 GiB
Duration : 1h 47mn
Overall bit rate : 10.3 Mbps
Encoded date : UTC 2014-09-05 17:30:32
Writing application : mkvmerge v7.1.0 ('Good Love') 32bit built on Jul 27 2014 12:59:18
Writing library : libebml v1.3.0 + libmatroska v1.4.1
DURATION : 01:47:01.024000000
NUMBER_OF_FRAMES : 200657
NUMBER_OF_BYTES : 513681920
_STATISTICS_WRITING_APP : mkvmerge v7.1.0 ('Good Love') 32bit built on Jul 27 2014 12:59:18
_STATISTICS_WRITING_DATE_UTC : 2014-09-05 17:30:32
_STATISTICS_TAGS : BPS DURATION NUMBER_OF_FRAMES NUMBER_OF_BYTES
Video
ID : 1
Format : AVC
Format/Info : Advanced Video Codec
Format profile : High@L4.1
Format settings, CABAC : Yes
Format settings, ReFrames : 4 frames
Codec ID : V_MPEG4/ISO/AVC
Duration : 1h 47mn
Bit rate : 9 664 Kbps
Width : 1 552 pixels
Height : 1 080 pixels
Display aspect ratio : 1.437
Frame rate mode : Constant
Frame rate : 23.976 fps
Color space : YUV
Chroma subsampling : 4:2:0
Bit depth : 8 bits
Scan type : Progressive
Bits/(Pixel*Frame) : 0.240
Stream size : 7.07 GiB (92%)
Writing library : x264 core 130 r2273 b3065e6
Encoding settings : cabac=1 / ref=4 / deblock=1:-1:-1 / analyse=0x3:0x133 / me=umh / subme=11 / psy=1 / psy_rd=1.00:0.20 / mixed_ref=1 / me_range=32 / chroma_me=1 / trellis=2 / 8x8dct=1 / cqm=0 / deadzone=21,11 / fast_pskip=0 / chroma_qp_offset=-3 / threads=6 / lookahead_threads=1 / sliced_threads=0 / nr=0 / decimate=0 / interlaced=0 / bluray_compat=0 / constrained_intra=0 / bframes=8 / b_pyramid=2 / b_adapt=2 / b_bias=0 / direct=3 / weightb=1 / open_gop=0 / weightp=2 / keyint=250 / keyint_min=23 / scenecut=40 / intra_refresh=0 / rc_lookahead=60 / rc=2pass / mbtree=1 / bitrate=9664 / ratetol=1.0 / qcomp=0.60 / qpmin=0 / qpmax=69 / qpstep=4 / cplxblur=20.0 / qblur=0.5 / ip_ratio=1.40 / aq=1:1.00
Language : English
Default : Yes
Forced : No
DURATION : 01:47:01.008000000
NUMBER_OF_FRAMES : 153950
NUMBER_OF_BYTES : 7754990799
_STATISTICS_WRITING_APP : mkvmerge v7.1.0 ('Good Love') 32bit built on Jul 27 2014 12:59:18
_STATISTICS_WRITING_DATE_UTC : 2014-09-05 17:30:32
_STATISTICS_TAGS : BPS DURATION NUMBER_OF_FRAMES NUMBER_OF_BYTES
Audio
ID : 2
Format : AC-3
Format/Info : Audio Coding 3
Mode extension : CM (complete main)
Format settings, Endianness : Big
Codec ID : A_AC3
Duration : 1h 47mn
Bit rate mode : Constant
Bit rate : 640 Kbps
Channel(s) : 2 channels
Channel positions : Front: L R
Sampling rate : 48.0 KHz
Bit depth : 16 bits
Compression mode : Lossy
Stream size : 490 MiB (6%)
Default : Yes
Forced : No

x264 [info]: frame I:666 Avg QP:15.79 size:147925
x264 [info]: frame P:31213 Avg QP:18.74 size: 78377
x264 [info]: frame B:122071 Avg QP:20.08 size: 42681




   Похожие торренты   Торрент   Размер 
В этой теме нет новых непрочитанных сообщений. Зеркало (1974) BDRip-AVC | iPad | O

21 | 3

1.68 ГБ

В этой теме нет новых непрочитанных сообщений. Зеркало (1974) BDRip от MediaClub | КПК

39 | 6

483.69 МБ

В этой теме нет новых непрочитанных сообщений. Зеркало (1974) BDRip 720p | O

18 | 16

3.97 ГБ

В этой теме нет новых непрочитанных сообщений. Зеркало (1974) BDRip от HQCLUB

1021 | 11

2 ГБ

В этой теме нет новых непрочитанных сообщений. Зеркало (1974) BDRip от KinoZalSat - СССР

294 | 22

1.37 ГБ

В этой теме нет новых непрочитанных сообщений. Зеркало (1974) BDRip 1080 от HDReactor

7 | 12

10.35 ГБ

В этой теме нет новых непрочитанных сообщений. Зеркало (1974) BDRip 720p от FREEISLAND

7 | 3

4.37 ГБ




Вы не можете начинать темы
Вы не можете отвечать на сообщения
Вы не можете редактировать свои сообщения
Вы не можете удалять свои сообщения
Вы не можете добавлять вложения

Перейти:  
Для Мосгорсуда, Роскомнадзора и рекламодателей: mosgorsud-torrent[собачка]yandex.ru
 Вход
ppkBB3cker v.2 © 2008-2014 @ PPK
[ Time : 0.020s | 15 Queries | GZIP : On ]

Торрент трекер RUTOR.IN, Не можете зайти на rutor.org? Какой новый адрес рутор? Какое зеркало рутор? Не работает rutor.org и зеркала? Тогда наш торрент специально для вас. Rutor.in неофициальное зеркало rutor. В случае если у Вас заблокирован rutor или вдруг Вы не можете на него зайти, то Вы без труда сможете скачать бесплатно и без рекламы последние новинки кино, игр, сериалов и прочего у нас, на Rutor.in. Не нужно использовать прокси, чтобы зайти на рутор, достаточно воспользоваться нашим ресурсом. Все новые фильмы, игры, сериалы, книги и музыка за 2013 и 2014 годы через торрент бесплатно. Скачивайте фильмы в хорошем качестве, игры для пк, xbox, playstation без регистрации. У нас вы найдете новые Зарубежные сериалы и Русские сериалы 2013, 2014, 2015 годов. Оставайтесь с нами, качайте любимые фильмы, игры, сериалы, книги и музыку.