img image001 image001 image001 image001 image001 image001 image001 image001 image001 image001 image001 image001 image001 image001 image001

Planets Sun Sun Sun
Статистика раздачи
Автор: Nickolas3434 | Размер: 744.77 МБ | Добавлен: 09 сен 2014
Раздают: 16    Качают: 5
Скачать торрент
Скачать торрент
Описание торрента

СообщениеДобавлено: 09 сен 2014 

Страна: Россия
Производство: Студия Горького, НТВ-Профит
Жанр: мелодрама
Год выпуска: 2000
Продолжительность: 01:41:56
Перевод: не требуется
Оригинальная аудиодорожка: русский
Cубтитры: нет
Режиссер: Михаил Агранович, Олег Янковский
В ролях: Екатерина Васильева, Ирина Купченко, Олег Янковский, Наталья Щукина, Марк Рудинштейн, Иван Янковский...
Описание:
Перед Новым годом окна огромного города светятся изнутри разноцветными елочными огнями. Кажется, что за каждым из этих окон осторожно хранят любимый праздник. Кажется, что за каждым из них ждут новогоднего исполнения желаний… К силуэту пожилой женщины за одним из окон старого московского дома соседи по двору наверняка привыкли как к чему-то неизменному. Софья Ивановна уже десять лет не встает со своего кресла, целыми днями смотрит в окно, клеит из бумаги трогательные фигурки и слушает Диккенса, которого читает ей вслух единственная дочь Таня. Единственная наследница, Таня, которая должна бы передать драгоценности своей дочери, похоже, смирилась с положением старой девы, и вся ее жизнь состоит только из забот о больной матери. Возможно, эти женщины провели бы вдвоем еще немало тихих, уединенных лет в своей уютной квартире, если бы в один из предновогодних вечеров Софья Ивановна не собралась бы. .. умирать. О чем и сообщила своей дочери. И так сильно захотелось Софье Ивановне, чтобы ее дочь была счастлива, а Тане так захотелось, чтобы у ее мамы на душе было спокойно…. И так близок был Новый год, что за окном старой московской квартиры начались самые настоящие новогодние чудеса…





Исходник: DVD9 R5
Тип релиза: DVDRip
Контейнер: AVI
Видео: 608x432 (1,407:1), 25 fps, XviD ~ 884 kbps avg, 0.135 bit/pixel
Аудио: 48 kHz, MP3 2.0, 128 kbps
Раздача от:
Общее
Полное имя : Prihodi.na.menya.posmotret.2000.DVDRip-745_[New-team]_by_AVP_Studio.avi
Формат : AVI
Формат/Информация : Audio Video Interleave
Размер файла : 745 Мбайт
Продолжительность : 1 ч. 41 м.
Общий поток : 1021 Кбит/сек
Программа кодирования : VirtualDubModRus 1.5.10.2 (build 2542/release)
Библиотека кодирования : VirtualDubMod build 2542/release
Видео
Идентификатор : 0
Формат : MPEG-4 Visual
Профиль формата : Advanced Simple@L5
Параметр BVOP формата : 1
Параметр QPel формата : Нет
Параметр GMC формата : Без точки перехода
Параметр матрицы формата : Выборочная
Идентификатор кодека : XVID
Идентификатор кодека/Подсказка : XviD
Продолжительность : 1 ч. 41 м.
Битрейт : 884 Кбит/сек
Ширина : 608 пикселей
Высота : 432 пикселя
Соотношение сторон : 1,407
Частота кадров : 25,000 кадров/сек
Цветовое пространство : YUV
Субдискретизация насыщенности : 4:2:0
Битовая глубина : 8 бит
Тип развёртки : Прогрессивная
Метод сжатия : С потерями
Бит/(Пиксели*Кадры) : 0.135
Размер потока : 644 Мбайт (87%)
Библиотека кодирования : XviD 73
Аудио
Идентификатор : 1
Формат : MPEG Audio
Версия формата : Version 1
Профиль формата : Layer 3
Идентификатор кодека : 55
Идентификатор кодека/Подсказка : MP3
Продолжительность : 1 ч. 41 м.
Вид битрейта : Постоянный
Битрейт : 128 Кбит/сек
Каналы : 2 канала
Частота : 48,0 КГц
Метод сжатия : С потерями
Размер потока : 93,3 Мбайт (13%)
Выравнивание : Соединение по промежуткам
Продолжительность промежутка : 40 мс. (1,00 видеокадр)
Время предзагрузки промежутка : 504 мс.
Библиотека кодирования : LAME3.99r
Настройки программы : -m s -V 4 -q 2 -lowpass 17 -b 128





   Похожие торренты   Торрент   Размер 
В этой теме нет новых непрочитанных сообщений. Приходи на меня посмотреть (2000) DVDRip-AVC от New-Team

143 | 9

1.46 ГБ

В этой теме нет новых непрочитанных сообщений. Приходи на меня посмотреть (2000) DVDRip от New-Team

88 | 4

1.46 ГБ

В этой теме нет новых непрочитанных сообщений. Приходи на меня посмотреть (2000) DVDRip

475 | 10

1.46 ГБ

В этой теме нет новых непрочитанных сообщений. Приходи на меня посмотреть (2000) DVDRip | Реставрация

307 | 18

1.9 ГБ

В этой теме нет новых непрочитанных сообщений. Приходи на меня посмотреть (2000) DVD5

22 | 5

4.08 ГБ

В этой теме нет новых непрочитанных сообщений. Приходи на меня посмотреть / Nal boreowayo (2016) WEB-DLRip | L2

211 | 14

1.45 ГБ

В этой теме нет новых непрочитанных сообщений. Без сына не приходи (1986) DVDRip

3 | 2

1.33 ГБ




Вы не можете начинать темы
Вы не можете отвечать на сообщения
Вы не можете редактировать свои сообщения
Вы не можете удалять свои сообщения
Вы не можете добавлять вложения

Перейти:  
Для Мосгорсуда, Роскомнадзора и рекламодателей: mosgorsud-torrent[собачка]yandex.ru
 Вход
ppkBB3cker v.2 © 2008-2014 @ PPK
[ Time : 0.022s | 16 Queries | GZIP : Off ]

Торрент трекер RUTOR.IN, Не можете зайти на rutor.org? Какой новый адрес рутор? Какое зеркало рутор? Не работает rutor.org и зеркала? Тогда наш торрент специально для вас. Rutor.in неофициальное зеркало rutor. В случае если у Вас заблокирован rutor или вдруг Вы не можете на него зайти, то Вы без труда сможете скачать бесплатно и без рекламы последние новинки кино, игр, сериалов и прочего у нас, на Rutor.in. Не нужно использовать прокси, чтобы зайти на рутор, достаточно воспользоваться нашим ресурсом. Все новые фильмы, игры, сериалы, книги и музыка за 2013 и 2014 годы через торрент бесплатно. Скачивайте фильмы в хорошем качестве, игры для пк, xbox, playstation без регистрации. У нас вы найдете новые Зарубежные сериалы и Русские сериалы 2013, 2014, 2015 годов. Оставайтесь с нами, качайте любимые фильмы, игры, сериалы, книги и музыку.