img image001 image001 image001 image001 image001 image001 image001 image001 image001 image001 image001 image001 image001 image001 image001

Planets Sun Sun Sun
Статистика раздачи
Автор: Nickolas3434 | Размер: 1.46 ГБ | Добавлен: 09 сен 2014
Раздают: 141    Качают: 7
Скачать торрент
Скачать торрент
Описание торрента

СообщениеДобавлено: 09 сен 2014 

Страна: Россия
Производство: Студия Горького, НТВ-Профит
Жанр: мелодрама
Год выпуска: 2000
Продолжительность: 01:41:56
Перевод: не требуется
Оригинальная аудиодорожка: русский
Cубтитры: нет
Режиссер: Михаил Агранович, Олег Янковский
В ролях: Екатерина Васильева, Ирина Купченко, Олег Янковский, Наталья Щукина, Марк Рудинштейн, Иван Янковский...
Описание:
Перед Новым годом окна огромного города светятся изнутри разноцветными елочными огнями. Кажется, что за каждым из этих окон осторожно хранят любимый праздник. Кажется, что за каждым из них ждут новогоднего исполнения желаний… К силуэту пожилой женщины за одним из окон старого московского дома соседи по двору наверняка привыкли как к чему-то неизменному. Софья Ивановна уже десять лет не встает со своего кресла, целыми днями смотрит в окно, клеит из бумаги трогательные фигурки и слушает Диккенса, которого читает ей вслух единственная дочь Таня. Единственная наследница, Таня, которая должна бы передать драгоценности своей дочери, похоже, смирилась с положением старой девы, и вся ее жизнь состоит только из забот о больной матери. Возможно, эти женщины провели бы вдвоем еще немало тихих, уединенных лет в своей уютной квартире, если бы в один из предновогодних вечеров Софья Ивановна не собралась бы. .. умирать. О чем и сообщила своей дочери. И так сильно захотелось Софье Ивановне, чтобы ее дочь была счастлива, а Тане так захотелось, чтобы у ее мамы на душе было спокойно…. И так близок был Новый год, что за окном старой московской квартиры начались самые настоящие новогодние чудеса…





Исходник: DVD9 R5
Тип релиза: DVDRip-AVC
Контейнер: MKV
Видео: 720->768x568 (4:3), 25 fps, H264 ~ 1594 kbps avg, 0.156 bit/pixel
Аудио: 48 kHz, Dolby Digital AC3 5.1, 448 kbps
Раздача от:
Общее
Полное имя : Prihodi.na.menya.posmotret.2000.DVDRip-AVC_[New-team]_by_AVP_Studio.mkv
Формат : Matroska
Версия формата : Version 2
Размер файла : 1,46 Гбайт
Продолжительность : 1 ч. 41 м.
Общий поток : 2044 Кбит/сек
Дата кодирования : UTC 2014-09-08 13:49:19
Программа кодирования : mkvmerge v6.1.0 ('Old Devil') built on Mar 4 2013 09:10:42
Библиотека кодирования : libebml v1.3.0 + libmatroska v1.4.0
Видео
Идентификатор : 1
Формат : AVC
Формат/Информация : Advanced Video Codec
Профиль формата : High@L4.1
Параметр CABAC формата : Да
Параметр ReFrames формата : 8 кадров
Идентификатор кодека : V_MPEG4/ISO/AVC
Продолжительность : 1 ч. 41 м.
Битрейт : 1594 Кбит/сек
Ширина : 720 пикселей
Высота : 568 пикселей
Соотношение сторон : 4:3
Режим частоты кадров : Постоянный
Частота кадров : 25,000 кадров/сек
Цветовое пространство : YUV
Субдискретизация насыщенности : 4:2:0
Битовая глубина : 8 бит
Тип развёртки : Прогрессивная
Бит/(Пиксели*Кадры) : 0.156
Размер потока : 1,11 Гбайт (76%)
Библиотека кодирования : x264 core 138 r2356 a1d3d17
Настройки программы : cabac=1 / ref=8 / deblock=1:-2:-1 / analyse=0x3:0x113 / me=umh / subme=10 / psy=1 / psy_rd=1.00:0.05 / mixed_ref=1 / me_range=32 / chroma_me=1 / trellis=2 / 8x8dct=1 / cqm=0 / deadzone=21,11 / fast_pskip=0 / chroma_qp_offset=-3 / threads=6 / lookahead_threads=1 / sliced_threads=0 / nr=0 / decimate=0 / interlaced=0 / bluray_compat=0 / constrained_intra=0 / bframes=8 / b_pyramid=2 / b_adapt=2 / b_bias=0 / direct=3 / weightb=1 / open_gop=0 / weightp=2 / keyint=250 / keyint_min=25 / scenecut=40 / intra_refresh=0 / rc=2pass / mbtree=0 / bitrate=1594 / ratetol=1.0 / qcomp=0.60 / qpmin=0 / qpmax=69 / qpstep=4 / cplxblur=20.0 / qblur=0.5 / ip_ratio=1.40 / pb_ratio=1.30 / aq=1:1.00
Default : Да
Forced : Нет
Аудио
Идентификатор : 2
Формат : AC-3
Формат/Информация : Audio Coding 3
Расширение режима : CM (complete main)
Параметр Endianness формата : Big
Идентификатор кодека : A_AC3
Продолжительность : 1 ч. 41 м.
Вид битрейта : Постоянный
Битрейт : 448 Кбит/сек
Каналы : 6 каналов
Расположение каналов : Front: L C R, Side: L R, LFE
Частота : 48,0 КГц
Битовая глубина : 16 бит
Метод сжатия : С потерями
Размер потока : 327 Мбайт (22%)
Default : Да
Forced : Нет





   Похожие торренты   Торрент   Размер 
В этой теме нет новых непрочитанных сообщений. Приходи на меня посмотреть (2000) DVDRip от New-Team

141 | 2

1.46 ГБ

В этой теме нет новых непрочитанных сообщений. Приходи на меня посмотреть (2000) DVDRip от New-Team

31 | 3

744.77 МБ

В этой теме нет новых непрочитанных сообщений. Приходи на меня посмотреть (2000) DVDRip

475 | 10

1.46 ГБ

В этой теме нет новых непрочитанных сообщений. Приходи на меня посмотреть (2000) DVDRip | Реставрация

307 | 18

1.9 ГБ

В этой теме нет новых непрочитанных сообщений. Приходи на меня посмотреть (2000) DVD5

22 | 5

4.08 ГБ

В этой теме нет новых непрочитанных сообщений. Приходи на меня посмотреть / Nal boreowayo (2016) WEB-DLRip | L2

123 | 3

1.45 ГБ

В этой теме нет новых непрочитанных сообщений. Без сына не приходи (1986) DVDRip

3 | 2

1.33 ГБ




Вы не можете начинать темы
Вы не можете отвечать на сообщения
Вы не можете редактировать свои сообщения
Вы не можете удалять свои сообщения
Вы не можете добавлять вложения

Перейти:  
Для Мосгорсуда, Роскомнадзора и рекламодателей: mosgorsud-torrent[собачка]yandex.ru
 Вход
ppkBB3cker v.2 © 2008-2014 @ PPK
[ Time : 0.095s | 15 Queries | GZIP : Off ]
CGP output time : 0.022s | 5 Queries | GZIP : Off

Торрент трекер RUTOR.IN, Не можете зайти на rutor.org? Какой новый адрес рутор? Какое зеркало рутор? Не работает rutor.org и зеркала? Тогда наш торрент специально для вас. Rutor.in неофициальное зеркало rutor. В случае если у Вас заблокирован rutor или вдруг Вы не можете на него зайти, то Вы без труда сможете скачать бесплатно и без рекламы последние новинки кино, игр, сериалов и прочего у нас, на Rutor.in. Не нужно использовать прокси, чтобы зайти на рутор, достаточно воспользоваться нашим ресурсом. Все новые фильмы, игры, сериалы, книги и музыка за 2013 и 2014 годы через торрент бесплатно. Скачивайте фильмы в хорошем качестве, игры для пк, xbox, playstation без регистрации. У нас вы найдете новые Зарубежные сериалы и Русские сериалы 2013, 2014, 2015 годов. Оставайтесь с нами, качайте любимые фильмы, игры, сериалы, книги и музыку.