img image001 image001 image001 image001 image001 image001 image001 image001 image001 image001 image001 image001 image001 image001 image001

Planets Sun Sun Sun
Статистика раздачи
Автор: Nickolas3434 | Размер: 1.09 ГБ | Добавлен: 17 сен 2014
Раздают: 25    Качают: 5
Скачать торрент
Скачать торрент
Описание торрента

СообщениеДобавлено: 17 сен 2014 


Информация о фильме
Оригинальное название: Ливень
Год выхода: 1974
Жанр: Мелодрама
Режиссер: Борис Яшин
В ролях: Светлана Дирина, Людмила Зайцева, Николай Олялин, Юрий Назаров, Николай Ерёменко (младший), Мария Скворцова, Валентина Березуцкая, Даниил Нетребин, Глеб Стриженов

О фильме: Весной 1945 года Саша, оставшись без родителей, приезжает в деревню Выселки в надежде найти свою тетку. Но ее последняя надежда на существование близкого человека рухнула. Однако знакомство с простыми жителями села, неожиданная любовь к леснику и чувство радости от необходимой работы вернули девушке жажду жизни...



Страна: СССР
Студия: Мосфильм
Продолжительность: 01:12:19
Язык: Русский

Файл
Тип релиза: SATRip
Видео: XviD, ~ 1964 Кбит/с, 704x336
Аудио: АС3, 48kHz, 2 ch, 192 Кбит/с

Общее
Полное имя : E:1АААЛивень.avi
Формат : AVI
Формат/Информация : Audio Video Interleave
Размер файла : 1,09 Гбайт
Продолжительность : 1 ч. 12 м.
Общий поток : 2165 Кбит/сек
Программа кодирования : VirtualDubMod 1.5.10.3 | www.virtualdub-fr.org || (build 2550/release)
Библиотека кодирования : VirtualDubMod build 2550/release

Видео
Идентификатор : 0
Формат : MPEG-4 Visual
Профиль формата : Advanced Simple@L5
Параметр BVOP формата : 1
Параметр QPel формата : Нет
Параметр GMC формата : Без точки перехода
Параметр матрицы формата : Default (H.263)
Идентификатор кодека : XVID
Идентификатор кодека/Подсказка : XviD
Продолжительность : 1 ч. 12 м.
Битрейт : 1964 Кбит/сек
Ширина : 704 пикселя
Высота : 336 пикселей
Соотношение сторон : 2,095
Частота кадров : 23,976 кадра/сек
Цветовое пространство : YUV
Субдискретизация насыщенности : 4:2:0
Битовая глубина : 8 бит
Тип развёртки : Прогрессивная
Метод сжатия : С потерями
Бит/(Пиксели*Кадры) : 0.346
Размер потока : 1016 Мбайт (91%)
Библиотека кодирования : XviD 1.2.1 (UTC 2008-12-04)

Аудио
Идентификатор : 1
Формат : AC-3
Формат/Информация : Audio Coding 3
Расширение режима : CM (complete main)
Параметр Endianness формата : Big
Идентификатор кодека : 2000
Продолжительность : 1 ч. 12 м.
Вид битрейта : Постоянный
Битрейт : 192 Кбит/сек
Каналы : 2 канала
Расположение каналов : Front: L R
Частота : 48,0 КГц
Битовая глубина : 16 бит
Метод сжатия : С потерями
Размер потока : 99,3 Мбайт (9%)
Выравнивание : Разделение по промежуткам
Продолжительность промежутка : 42 мс. (1,00 видеокадр)
Время предзагрузки промежутка : 500 мс.



   Похожие торренты   Торрент   Размер 
В этой теме нет новых непрочитанных сообщений. Профессия репортер. Огненный ливень [эфир от 24.11] (2012) SATRip

0 | 2

278.56 МБ

В этой теме нет новых непрочитанных сообщений. Разговор / The Conversation (1974) HDRip от NovaLan

17 | 3

2.19 ГБ

В этой теме нет новых непрочитанных сообщений. В Баку дуют ветры (1974) DVDRip от NovaLan

31 | 7

1.17 ГБ

В этой теме нет новых непрочитанных сообщений. Дом Кнута / House of Whipcord (1974) DVDRip от NovaLan

0 | 3

1.3 ГБ

В этой теме нет новых непрочитанных сообщений. Шугарлендский экспресс / The Sugarland Express (1974) HDTVRip от NovaLan

15 | 4

1.37 ГБ

В этой теме нет новых непрочитанных сообщений. Захват поезда Пелэм 1-2-3 / The Taking of Pelham One Two Three (1974) DVD-9 от NovaLan | P, P2, A

17 | 23

5.91 ГБ

В этой теме нет новых непрочитанных сообщений. Первая полоса / The Front Page (1974) HDTVRip от NovaLan

175 | 3

1.45 ГБ




Вы не можете начинать темы
Вы не можете отвечать на сообщения
Вы не можете редактировать свои сообщения
Вы не можете удалять свои сообщения
Вы не можете добавлять вложения

Перейти:  
Для Мосгорсуда, Роскомнадзора и рекламодателей: mosgorsud-torrent[собачка]yandex.ru
 Вход
ppkBB3cker v.2 © 2008-2014 @ PPK
[ Time : 0.033s | 14 Queries | GZIP : Off ]

Торрент трекер RUTOR.IN, Не можете зайти на rutor.org? Какой новый адрес рутор? Какое зеркало рутор? Не работает rutor.org и зеркала? Тогда наш торрент специально для вас. Rutor.in неофициальное зеркало rutor. В случае если у Вас заблокирован rutor или вдруг Вы не можете на него зайти, то Вы без труда сможете скачать бесплатно и без рекламы последние новинки кино, игр, сериалов и прочего у нас, на Rutor.in. Не нужно использовать прокси, чтобы зайти на рутор, достаточно воспользоваться нашим ресурсом. Все новые фильмы, игры, сериалы, книги и музыка за 2013 и 2014 годы через торрент бесплатно. Скачивайте фильмы в хорошем качестве, игры для пк, xbox, playstation без регистрации. У нас вы найдете новые Зарубежные сериалы и Русские сериалы 2013, 2014, 2015 годов. Оставайтесь с нами, качайте любимые фильмы, игры, сериалы, книги и музыку.