img image001 image001 image001 image001 image001 image001 image001 image001 image001 image001 image001 image001 image001 image001 image001

Planets Sun Sun Sun
Статистика раздачи
Автор: Nickolas3434 | Размер: 2.63 ГБ | Добавлен: 17 сен 2014
Раздают: 141    Качают: 14
Скачать торрент
Скачать торрент
Описание торрента

СообщениеДобавлено: 17 сен 2014 

Оригинальное название: Туман
Год выхода: 2010
Жанр: Драма, военный, ВОВ
Режиссер: Иван Шурховецкий, Артём Аксененко
В ролях: Игорь Шмаков, Василий Ракша, Артём Крестников, Григорий Калинин, Илья Глинников, Алексей Марков, Алексей Ильин, Иван Лапин, Дмитрий Сергин, Родион Галюченко, Юрий Пимкин, Борис Зверев, Арчибальд Арчибальдович, Евгений Куршинский, Дмитрий Росляков, Владислав Черников, Анна Шмакова, Александр Науменко, Борис Черкасов, Вячеслав Буцков, Светлана Устинова, Анастасия Безбородова, Светлана Агафошина, Виктория Алейникова, Лилия Ишкина, Ольга Лоскутова, Елена Ципилева

О фильме: Отряд молодых бойцов Российской Армии отрывается от основного строя во время марш-броска, дабы сократить путь, бежит наперерез, но попадает в туман, который переносит его в прошлое, в годы Великой Отечественной войны. Ребята, видевшие войну только в кино, попадают в лапы безжалостных событий того времени. Все на грани: храбрость, страх, любовь, ненависть, жизнь, смерть. И некогда задавать вопросы. Живи, дерись за Родину — она одна на все времена.

Страна: Россия
Продолжительность: 02:31:17
Язык: Русский

Кодек: MPEG-4 AVC
Качество: DVDRip-AVC
Видео: 1024x524, 2039 Кбит/с, 25,000 fps
Звук: AC3, 2 ch, 448 Кбит/с

Семпл

General
Unique ID : 204122621036843478892685200584666340499 (0x99909639B721B8CFB46D8391231D5C93)
Complete name : F:мои рипыТуман.2010.x264.DVDRip.(AVC).mkv
Format : Matroska
Format version : Version 4 / Version 2
File size : 2.63 GiB
Duration : 2h 31mn
Overall bit rate : 2 489 Kbps
Movie name : Туман / 2010 / Rip by PowerRock
Encoded date : UTC 2014-04-27 08:04:26
Writing application : mkvmerge v6.7.0 ('Back to the Ground') 32bit built on Jan 8 2014 15:03:17
Writing library : libebml v1.3.0 + libmatroska v1.4.1

Video
ID : 1
Format : AVC
Format/Info : Advanced Video Codec
Format profile : High@L4.1
Format settings, CABAC : Yes
Format settings, ReFrames : 7 frames
Codec ID : V_MPEG4/ISO/AVC
Duration : 2h 31mn
Bit rate : 2 039 Kbps
Width : 1 024 pixels
Height : 524 pixels
Display aspect ratio : 1.954
Frame rate mode : Constant
Frame rate : 25.000 fps
Color space : YUV
Chroma subsampling : 4:2:0
Bit depth : 8 bits
Scan type : Progressive
Bits/(Pixel*Frame) : 0.152
Stream size : 2.10 GiB (80%)
Title : Туман / 2010
Writing library : x264 core 125 r2200 999b753
Encoding settings : cabac=1 / ref=7 / deblock=1:-2:-1 / analyse=0x3:0x133 / me=umh / subme=10 / psy=1 / psy_rd=1.00:0.10 / mixed_ref=1 / me_range=24 / chroma_me=1 / trellis=2 / 8x8dct=1 / cqm=0 / deadzone=21,11 / fast_pskip=0 / chroma_qp_offset=-3 / threads=6 / lookahead_threads=1 / sliced_threads=0 / nr=0 / decimate=1 / interlaced=0 / bluray_compat=0 / constrained_intra=0 / bframes=5 / b_pyramid=2 / b_adapt=2 / b_bias=0 / direct=3 / weightb=1 / open_gop=0 / weightp=2 / keyint=250 / keyint_min=23 / scenecut=40 / intra_refresh=0 / rc_lookahead=50 / rc=2pass / mbtree=1 / bitrate=2039 / ratetol=1.0 / qcomp=0.60 / qpmin=10 / qpmax=51 / qpstep=4 / cplxblur=20.0 / qblur=0.5 / ip_ratio=1.40 / aq=1:1.00
Default : Yes
Forced : No

Audio
ID : 2
Format : AC-3
Format/Info : Audio Coding 3
Mode extension : CM (complete main)
Format settings, Endianness : Big
Codec ID : A_AC3
Duration : 2h 31mn
Bit rate mode : Constant
Bit rate : 448 Kbps
Channel(s) : 2 channels
Channel positions : Front: L R
Sampling rate : 48.0 KHz
Bit depth : 16 bits
Compression mode : Lossy
Stream size : 485 MiB (18%)
Language : Russian
Default : Yes
Forced : No






   Похожие торренты   Торрент   Размер 
В этой теме нет новых непрочитанных сообщений. Туман (2010) DVDRip | Лицензия

196 | 21

702.69 МБ

В этой теме нет новых непрочитанных сообщений. Туман (2010) DVDRip от PowerTracker

30 | 6

2.19 ГБ

В этой теме нет новых непрочитанных сообщений. Туман (2010) DVDRip от Kinobomond

154 | 20

1.37 ГБ

В этой теме нет новых непрочитанных сообщений. Туман (2010) DVDRip-AVC от ExKinoRay

273 | 14

3.38 ГБ

В этой теме нет новых непрочитанных сообщений. Туман (2010) DVDRip | КПК от Generalfilm

13 | 3

520.91 МБ

В этой теме нет новых непрочитанных сообщений. Туман (2010) DVDRip от SMALL-RiP

58 | 7

1.47 ГБ

В этой теме нет новых непрочитанных сообщений. Нэнси - Туман, Туман (1999) MP3

5 | 0

162.91 МБ




Вы не можете начинать темы
Вы не можете отвечать на сообщения
Вы не можете редактировать свои сообщения
Вы не можете удалять свои сообщения
Вы не можете добавлять вложения

Перейти:  
Для Мосгорсуда, Роскомнадзора и рекламодателей: mosgorsud-torrent[собачка]yandex.ru
 Вход
ppkBB3cker v.2 © 2008-2014 @ PPK
[ Time : 0.565s | 17 Queries | GZIP : Off ]

cron