img image001 image001 image001 image001 image001 image001 image001 image001 image001 image001 image001 image001 image001 image001 image001

Planets Sun Sun Sun
Статистика раздачи
Автор: Nickolas3434 | Размер: 2.19 ГБ | Добавлен: 17 сен 2014
Раздают: 8    Качают: 3
Скачать торрент
Скачать торрент
Описание торрента

СообщениеДобавлено: 17 сен 2014 

Страна: СССР
Производство: Ленфильм

Жанр: драма
Год выпуска: 1979
Продолжительность: 02:16:08 (01:06:39 + 01:09:29)

Перевод: не требуется
Оригинальная аудиодорожка: русский
Cубтитры: нет

Режиссер: Михаил Агранович, Олег Янковский

В ролях:
Олег Даль, Ирина Купченко, Наталья Гундарева, Юрий Богатырёв, Ирина Резникова, Наталья Миколышина, Геннадий Богачёв, Николай Бурляев, Евгений Леонов...

Описание:
Виктор Зилов на работе получает долгожданную квартиру и устраивает новоселье для друзей, с которыми дружит еще со школьных времен. Галина — жена Виктора — возлагает на квартиру большие надежды. Ей кажется, что теперь начнется счастливая жизнь. В последнее время Виктор часто не ночевал дома, весь изолгался, пил, болтался с женщинами. Галина устала от его бесконечных пустых обещаний, но она любит Виктора и ждет от него ребенка. Зилова эта новость не обрадовала. Привыкнув к бесцельной жизни, он понимает, что ребенок — это обуза. Дома отношения не складывались, да и на работе тоже. Чтобы излишне не утруждаться, Зилов — в общем-то способный человек — подсовывает своему начальнику липовый проект…





Исходник: DVD9 R5
Тип релиза: DVDRip
Контейнер: AVI

Видео: 704x528 (4:3), 25 fps, XviD ~ 1843 kbps avg, 0.198 bit/pixel
Аудио: 48 kHz, Dolby Digital AC3 5.1, 448 kbps

Раздача от:
Общее
Полное имя : Otpusk.v.sentynabre.1979.DVDRip_[New-team]_by_AVP_Studio\01.avi
Формат : AVI
Формат/Информация : Audio Video Interleave
Размер файла : 1,07 Гбайт
Продолжительность : 1 ч. 6 м.
Общий поток : 2301 Кбит/сек
Программа кодирования : VirtualDubModRus 1.5.10.2 (build 2542/release)
Библиотека кодирования : VirtualDubMod build 2542/release

Видео
Идентификатор : 0
Формат : MPEG-4 Visual
Профиль формата : Advanced Simple@L5
Параметр BVOP формата : 1
Параметр QPel формата : Нет
Параметр GMC формата : Без точки перехода
Параметр матрицы формата : Выборочная
Идентификатор кодека : XVID
Идентификатор кодека/Подсказка : XviD
Продолжительность : 1 ч. 6 м.
Битрейт : 1843 Кбит/сек
Ширина : 704 пикселя
Высота : 528 пикселей
Соотношение сторон : 4:3
Частота кадров : 25,000 кадров/сек
Цветовое пространство : YUV
Субдискретизация насыщенности : 4:2:0
Битовая глубина : 8 бит
Тип развёртки : Прогрессивная
Метод сжатия : С потерями
Бит/(Пиксели*Кадры) : 0.198
Размер потока : 878 Мбайт (80%)
Библиотека кодирования : XviD 73

Аудио
Идентификатор : 1
Формат : AC-3
Формат/Информация : Audio Coding 3
Расширение режима : CM (complete main)
Параметр Endianness формата : Big
Идентификатор кодека : 2000
Продолжительность : 1 ч. 6 м.
Вид битрейта : Постоянный
Битрейт : 448 Кбит/сек
Каналы : 6 каналов
Расположение каналов : Front: L C R, Side: L R, LFE
Частота : 48,0 КГц
Битовая глубина : 16 бит
Метод сжатия : С потерями
Размер потока : 214 Мбайт (19%)
Выравнивание : Разделение по промежуткам
Продолжительность промежутка : 40 мс. (1,00 видеокадр)
Время предзагрузки промежутка : 500 мс





   Похожие торренты   Торрент   Размер 
В этой теме нет новых непрочитанных сообщений. Отпуск в сентябре (1979) DVDRip-AVC от New-Team

91 | 7

2.18 ГБ

В этой теме нет новых непрочитанных сообщений. Отпуск в сентябре (1979) DVDRip от New-Team

59 | 16

1.46 ГБ

В этой теме нет новых непрочитанных сообщений. Отпуск в сентябре (1979) DVDRip-AVC от Temperest

19 | 5

3.58 ГБ

В этой теме нет новых непрочитанных сообщений. Отпуск в сентябре (1979) DVDRip от Киномагия

56 | 5

2.33 ГБ

В этой теме нет новых непрочитанных сообщений. Отпуск в сентябре (1979) DVDRip-AVC от ExKinoRay

152 | 10

2.59 ГБ

В этой теме нет новых непрочитанных сообщений. Приходи в сентябре / Come September (1961) DVDRip-AVC

88 | 3

1.45 ГБ

В этой теме нет новых непрочитанных сообщений. Увидимся в сентябре / See You in September (2010) DVDRip | Лицензия

6 | 1

742.51 МБ




Вы не можете начинать темы
Вы не можете отвечать на сообщения
Вы не можете редактировать свои сообщения
Вы не можете удалять свои сообщения
Вы не можете добавлять вложения

Перейти:  
Для Мосгорсуда, Роскомнадзора и рекламодателей: mosgorsud-torrent[собачка]yandex.ru
 Вход
ppkBB3cker v.2 © 2008-2014 @ PPK
[ Time : 0.049s | 16 Queries | GZIP : Off ]

Торрент трекер RUTOR.IN, Не можете зайти на rutor.org? Какой новый адрес рутор? Какое зеркало рутор? Не работает rutor.org и зеркала? Тогда наш торрент специально для вас. Rutor.in неофициальное зеркало rutor. В случае если у Вас заблокирован rutor или вдруг Вы не можете на него зайти, то Вы без труда сможете скачать бесплатно и без рекламы последние новинки кино, игр, сериалов и прочего у нас, на Rutor.in. Не нужно использовать прокси, чтобы зайти на рутор, достаточно воспользоваться нашим ресурсом. Все новые фильмы, игры, сериалы, книги и музыка за 2013 и 2014 годы через торрент бесплатно. Скачивайте фильмы в хорошем качестве, игры для пк, xbox, playstation без регистрации. У нас вы найдете новые Зарубежные сериалы и Русские сериалы 2013, 2014, 2015 годов. Оставайтесь с нами, качайте любимые фильмы, игры, сериалы, книги и музыку.