img image001 image001 image001 image001 image001 image001 image001 image001 image001 image001 image001 image001 image001 image001 image001

Planets Sun Sun Sun
Статистика раздачи
Автор: Nickolas3434 | Размер: 1.23 ГБ | Добавлен: 17 сен 2014
Раздают: 41    Качают: 7
Скачать торрент
Скачать торрент
Описание торрента

СообщениеДобавлено: 17 сен 2014 

Информация о фильме
Оригинальное название: Долгая счастливая жизнь
Год выхода: 2013
Жанр: Драма
Режиссер: Борис Хлебников
В ролях: Александр Яценко, Анна Котова, Владимир Коробейников, Сергей Наседкин, Евгений Сытый, Глеб Пускепалис, Инна Стерлигова, Александр Алябьев, Сергей Пестриков, Павел Колесников, Денис Ятковский, Валерий Константинов, Михаил Хапчук, Людмила Фамильцева, Андрей Монахов

О фильме:
Молодой предприниматель Саша поставлен перед выбором: получив компенсацию, мирно расстаться с налаженным хозяйством и уехать в город с любимой девушкой или вступить в опасную борьбу с новыми владельцами, чтобы отстоять права живущих на его земле людей.


Страна: Россия
Студия: Кинокомпания "Коктебель"
Продолжительность: 01:15:13
Язык: Русский

Файл
Кодек: MPEG-4 AVC
Качество: HDTVRip (AVC)
Видео: 2150 Кбит/с, 1024x552, 25.000 кадр/с
Звук: Русский (АС3, 2 ch, 192 Кбит/с)

Семпл


Общее
Полное имя : Dolgaja.schastlivaja.zhizn.2013.x264.HDTVRip(AVC).MediaClub.mkv
Формат : Matroska
Версия формата : Version 2
Размер файла : 1,23 Гбайт
Продолжительность : 1 ч. 15 м.
Общий поток : 2340 Кбит/сек
Название фильма : MediaClub
Дата кодирования : UTC 2014-09-15 16:00:06
Программа кодирования : mkvmerge v5.4.0 ('Piper') built on Mar 10 2012 13:34:39
Библиотека кодирования : libebml v1.2.3 + libmatroska v1.3.0

Видео
Идентификатор : 1
Формат : AVC
Формат/Информация : Advanced Video Codec
Профиль формата : High@L4.1
Параметр CABAC формата : Да
Параметр ReFrames формата : 9 кадров
Идентификатор кодека : V_MPEG4/ISO/AVC
Продолжительность : 1 ч. 15 м.
Битрейт : 2150 Кбит/сек
Ширина : 1024 пикселя
Высота : 552 пикселя
Соотношение сторон : 1,85:1
Режим частоты кадров : Постоянный
Частота кадров : 25,000 кадров/сек
Цветовое пространство : YUV
Субдискретизация насыщенности : 4:2:0
Битовая глубина : 8 бит
Тип развёртки : Прогрессивная
Бит/(Пиксели*Кадры) : 0.152
Размер потока : 1,10 Гбайт (90%)
Библиотека кодирования : x264 core 125 r2208 d9d2288
Настройки программы : cabac=1 / ref=9 / deblock=1:-3:-2 / analyse=0x3:0x133 / me=umh / subme=10 / psy=1 / psy_rd=1.00:0.20 / mixed_ref=1 / me_range=48 / chroma_me=1 / trellis=2 / 8x8dct=1 / cqm=0 / deadzone=21,11 / fast_pskip=0 / chroma_qp_offset=-3 / threads=6 / lookahead_threads=1 / sliced_threads=0 / nr=0 / decimate=0 / interlaced=0 / bluray_compat=0 / constrained_intra=0 / bframes=8 / b_pyramid=2 / b_adapt=2 / b_bias=0 / direct=3 / weightb=1 / open_gop=0 / weightp=2 / keyint=250 / keyint_min=25 / scenecut=40 / intra_refresh=0 / rc=2pass / mbtree=0 / bitrate=2150 / ratetol=1.0 / qcomp=0.60 / qpmin=0 / qpmax=69 / qpstep=4 / cplxblur=20.0 / qblur=0.5 / ip_ratio=1.40 / pb_ratio=1.30 / aq=1:1.00
Язык : English
Default : Да
Forced : Нет

Аудио
Идентификатор : 2
Формат : AC-3
Формат/Информация : Audio Coding 3
Расширение режима : CM (complete main)
Параметр Endianness формата : Big
Идентификатор кодека : A_AC3
Продолжительность : 1 ч. 15 м.
Вид битрейта : Постоянный
Битрейт : 192 Кбит/сек
Каналы : 2 канала
Расположение каналов : Front: L R
Частота : 48,0 КГц
Битовая глубина : 16 бит
Метод сжатия : С потерями
Размер потока : 103 Мбайт (8%)
Язык : Russian
Default : Да
Forced : Нет


Ника, 2014 год
Номинации (3):

Лучший фильм
Лучший сценарий
Лучший режиссер (Борис Хлебников)
Берлинский кинофестиваль, 2013 год
Номинации (1):

Золотой Медведь


Релиз от:



   Похожие торренты   Торрент   Размер 
В этой теме нет новых непрочитанных сообщений. Долгая счастливая жизнь (2013) HDTVRip 1080p от MediaClub

76 | 4

3.04 ГБ

В этой теме нет новых непрочитанных сообщений. Долгая счастливая жизнь (2013) HDTVRip 720p от MediaClub

71 | 9

1.97 ГБ

В этой теме нет новых непрочитанных сообщений. Долгая счастливая жизнь (2013) HDTV 1080i от MediaClub

35 | 6

4.15 ГБ

В этой теме нет новых непрочитанных сообщений. Долгая счастливая жизнь (2013) DVD5 | Лицензия

17 | 4

4.19 ГБ

В этой теме нет новых непрочитанных сообщений. Долгая счастливая жизнь (2013) DVDRip | Лицензия

86 | 7

1.37 ГБ

В этой теме нет новых непрочитанных сообщений. Долгая счастливая жизнь (2013) DVDRip от Scarabey | Лицензия

81 | 3

1.39 ГБ

В этой теме нет новых непрочитанных сообщений. Долгая счастливая жизнь (1966) DVDRip

70 | 1

1.09 ГБ




Вы не можете начинать темы
Вы не можете отвечать на сообщения
Вы не можете редактировать свои сообщения
Вы не можете удалять свои сообщения
Вы не можете добавлять вложения

Перейти:  
Для Мосгорсуда, Роскомнадзора и рекламодателей: mosgorsud-torrent[собачка]yandex.ru
 Вход
ppkBB3cker v.2 © 2008-2014 @ PPK
[ Time : 0.068s | 17 Queries | GZIP : On ]

Торрент трекер RUTOR.IN, Не можете зайти на rutor.org? Какой новый адрес рутор? Какое зеркало рутор? Не работает rutor.org и зеркала? Тогда наш торрент специально для вас. Rutor.in неофициальное зеркало rutor. В случае если у Вас заблокирован rutor или вдруг Вы не можете на него зайти, то Вы без труда сможете скачать бесплатно и без рекламы последние новинки кино, игр, сериалов и прочего у нас, на Rutor.in. Не нужно использовать прокси, чтобы зайти на рутор, достаточно воспользоваться нашим ресурсом. Все новые фильмы, игры, сериалы, книги и музыка за 2013 и 2014 годы через торрент бесплатно. Скачивайте фильмы в хорошем качестве, игры для пк, xbox, playstation без регистрации. У нас вы найдете новые Зарубежные сериалы и Русские сериалы 2013, 2014, 2015 годов. Оставайтесь с нами, качайте любимые фильмы, игры, сериалы, книги и музыку.