img image001 image001 image001 image001 image001 image001 image001 image001 image001 image001 image001 image001 image001 image001 image001

Planets Sun Sun Sun
Статистика раздачи
Автор: Nickolas3434 | Размер: 1.46 ГБ | Добавлен: 17 сен 2014
Раздают: 60    Качают: 15
Скачать торрент
Скачать торрент
Описание торрента

СообщениеДобавлено: 17 сен 2014 

Страна: СССР
Производство: Ленфильм

Жанр: драма
Год выпуска: 1979
Продолжительность: 02:16:08 (01:06:39 + 01:09:29)

Перевод: не требуется
Оригинальная аудиодорожка: русский
Cубтитры: нет

Режиссер: Михаил Агранович, Олег Янковский

В ролях:
Олег Даль, Ирина Купченко, Наталья Гундарева, Юрий Богатырёв, Ирина Резникова, Наталья Миколышина, Геннадий Богачёв, Николай Бурляев, Евгений Леонов...

Описание:
Виктор Зилов на работе получает долгожданную квартиру и устраивает новоселье для друзей, с которыми дружит еще со школьных времен. Галина — жена Виктора — возлагает на квартиру большие надежды. Ей кажется, что теперь начнется счастливая жизнь. В последнее время Виктор часто не ночевал дома, весь изолгался, пил, болтался с женщинами. Галина устала от его бесконечных пустых обещаний, но она любит Виктора и ждет от него ребенка. Зилова эта новость не обрадовала. Привыкнув к бесцельной жизни, он понимает, что ребенок — это обуза. Дома отношения не складывались, да и на работе тоже. Чтобы излишне не утруждаться, Зилов — в общем-то способный человек — подсовывает своему начальнику липовый проект…





Исходник: DVD9 R5
Тип релиза: DVDRip
Контейнер: AVI

Видео: 704x528 (4:3), 25 fps, XviD ~ 1393 kbps avg, 0.150 bit/pixel
Аудио: 48 kHz, MP3 2.0, 128 kbps

Раздача от:
Общее
Полное имя : Otpusk.v.sentynabre.1979.DVDRip-1.46_[New-team]_by_AVP_Studio2.avi
Формат : AVI
Формат/Информация : Audio Video Interleave
Размер файла : 761 Мбайт
Продолжительность : 1 ч. 9 м.
Общий поток : 1531 Кбит/сек
Программа кодирования : VirtualDubModRus 1.5.10.2 (build 2542/release)
Библиотека кодирования : VirtualDubMod build 2542/release

Видео
Идентификатор : 0
Формат : MPEG-4 Visual
Профиль формата : Advanced Simple@L5
Параметр BVOP формата : 1
Параметр QPel формата : Нет
Параметр GMC формата : Без точки перехода
Параметр матрицы формата : Выборочная
Идентификатор кодека : XVID
Идентификатор кодека/Подсказка : XviD
Продолжительность : 1 ч. 9 м.
Битрейт : 1393 Кбит/сек
Ширина : 704 пикселя
Высота : 528 пикселей
Соотношение сторон : 4:3
Частота кадров : 25,000 кадров/сек
Цветовое пространство : YUV
Субдискретизация насыщенности : 4:2:0
Битовая глубина : 8 бит
Тип развёртки : Прогрессивная
Метод сжатия : С потерями
Бит/(Пиксели*Кадры) : 0.150
Размер потока : 693 Мбайт (91%)
Библиотека кодирования : XviD 73

Аудио
Идентификатор : 1
Формат : MPEG Audio
Версия формата : Version 1
Профиль формата : Layer 3
Идентификатор кодека : 55
Идентификатор кодека/Подсказка : MP3
Продолжительность : 1 ч. 9 м.
Вид битрейта : Постоянный
Битрейт : 128 Кбит/сек
Каналы : 2 канала
Частота : 48,0 КГц
Метод сжатия : С потерями
Размер потока : 63,6 Мбайт (8%)
Выравнивание : Соединение по промежуткам
Продолжительность промежутка : 40 мс. (1,00 видеокадр)
Время предзагрузки промежутка : 504 мс.
Библиотека кодирования : LAME3.99r
Настройки программы : -m s -V 4 -q 2 -lowpass 17 -b 128





   Похожие торренты   Торрент   Размер 
В этой теме нет новых непрочитанных сообщений. Отпуск в сентябре (1979) DVDRip-AVC от New-Team

88 | 6

2.18 ГБ

В этой теме нет новых непрочитанных сообщений. Отпуск в сентябре (1979) DVDRip от Киномагия

56 | 5

2.33 ГБ

В этой теме нет новых непрочитанных сообщений. Отпуск в сентябре (1979) DVDRip-AVC от Temperest

19 | 5

3.58 ГБ

В этой теме нет новых непрочитанных сообщений. Отпуск в сентябре (1979) DVDRip-AVC от ExKinoRay

123 | 9

2.59 ГБ

В этой теме нет новых непрочитанных сообщений. Отпуск в сентябре (2000) DVDRip от New-Team

9 | 2

2.19 ГБ

В этой теме нет новых непрочитанных сообщений. Куда ты едешь в отпуск? / Dove vai in vacanza? (1979) DVDRip от SergV

12 | 7

2.17 ГБ

В этой теме нет новых непрочитанных сообщений. Приходи в сентябре / Come September (1961) DVDRip-AVC

88 | 3

1.45 ГБ




Вы не можете начинать темы
Вы не можете отвечать на сообщения
Вы не можете редактировать свои сообщения
Вы не можете удалять свои сообщения
Вы не можете добавлять вложения

Перейти:  
Для Мосгорсуда, Роскомнадзора и рекламодателей: mosgorsud-torrent[собачка]yandex.ru
 Вход
ppkBB3cker v.2 © 2008-2014 @ PPK
[ Time : 0.038s | 16 Queries | GZIP : Off ]

cron