img image001 image001 image001 image001 image001 image001 image001 image001 image001 image001 image001 image001 image001 image001 image001

Planets Sun Sun Sun
Статистика раздачи
Автор: Nickolas3434 | Размер: 4.37 ГБ | Добавлен: 22 сен 2014
Раздают: 46    Качают: 8
Скачать торрент
Скачать торрент
Описание торрента

СообщениеДобавлено: 22 сен 2014 

Страна: Россия
Жанр: приключения
Год выпуска: 2013
Продолжительность: 01:58:34
Перевод: Не требуется


Режиссер: Сергей Жигунов


В ролях: Риналь Мухаметов (д'Артаньян), Юрий Чурсин (Атос), Алексей Макаров (Портос), Павел Баршак (Арамис), Василий Лановой (кардинал Ришелье), Анна Старшенбаум (Констанция Бонасье), Екатерина Вилкова (Миледи), Филипп Янковский (Людовик XIII), Мария Миронова (Анна Австрийская), Константин Лавроненко (герцог Бекингэм), Владимир Зайцев (Рошфор), Александр Лыков (де Тревиль)


Описание: История о юном гасконце Д`Артаньяне, который, не познав всех радостей любви, оказывается втянут в водоворот политических интриг королевского двора Людовика XIII. В роте королевских мушкетеров Де Тревиля он находит себе верных друзей Атоса, Портоса и Арамиса. Мушкетеры настолько поражены кипучей энергией гасконца и его умением находить неприятности, что принимают самое живое участие не только в многочисленных стычках с гвардейцами кардинала, но и в личной судьбе Д`Артаньяна. Благодаря друзьям Д`Артаньян находит свою первую любовь - Констанцию Бонасье и ввязывается в опаснейшую историю с подвесками Королевы. Тонкий и дальновидный политик кардинал Ришелье и его подручные Рошфор и Миледи обретают в лице Д`Артаньяна опаснейшего врага. Во имя любви он готов на самые отчаянные подвиги. На пути Д`Артаньяна немало опасных соблазнов и искушений. Но он их все преодолеет, не предав своей дружбы и любви!






Семпл


Качество: BDRip
Контейнер: MKV

Видео: AVC, 1280x720 (16:9), 4830 kbps, 25 fps, 0,210 bpp
Аудио: русский / AC3 / 5.1 / 48 kHz / 448 kbps
Навигация по главам: есть


---------------------------------------------------------------------------
x264 [info]: frame I:3203 Avg QP:16.82 size:101691
x264 [info]: frame P:89761 Avg QP:19.71 size: 34025
x264 [info]: frame B:84892 Avg QP:21.61 size: 10767
---------------------------------------------------------------------------
Format : Matroska
Format version : Version 2
File size : 4.37 GiB
Duration : 1h 58mn
Overall bit rate : 5 278 Kbps
Movie name : = Три мушкетёра BDRip 720p by SC Kosmos =
Encoded date : UTC 2014-09-20 08:29:40
Writing application : mkvmerge v3.3.0 ('Language') gebaut am Mar 24 2010 14:59:24
Writing library : libebml v0.8.0 + libmatroska v0.9.0

Video
ID : 1
Format : AVC
Format/Info : Advanced Video Codec
Format profile : High@L4.1
Format settings, CABAC : Yes
Format settings, ReFrames : 9 frames
Codec ID : V_MPEG4/ISO/AVC
Duration : 1h 58mn
Bit rate : 4 830 Kbps
Width : 1 280 pixels
Height : 720 pixels
Display aspect ratio : 16:9
Frame rate : 25.000 fps
Color space : YUV
Chroma subsampling : 4:2:0
Bit depth : 8 bits
Scan type : Progressive
Bits/(Pixel*Frame) : 0.210
Stream size : 3.91 GiB (90%)
Title : Три мушкетёра BDRip 720p by SC Kosmos
Writing library : x264 core 142 r2479 dd79a61
Encoding settings : cabac=1 / ref=9 / deblock=1:-3:-3 / analyse=0x3:0x113 / me=umh / subme=11 / psy=1 / psy_rd=1.00:0.00 / mixed_ref=1 / me_range=32 / chroma_me=1 / trellis=2 / 8x8dct=1 / cqm=0 / deadzone=21,11 / fast_pskip=0 / chroma_qp_offset=-2 / threads=12 / lookahead_threads=1 / sliced_threads=0 / nr=0 / decimate=1 / interlaced=0 / bluray_compat=0 / constrained_intra=0 / bframes=12 / b_pyramid=2 / b_adapt=1 / b_bias=0 / direct=3 / weightb=1 / open_gop=0 / weightp=2 / keyint=250 / keyint_min=25 / scenecut=40 / intra_refresh=0 / rc_lookahead=40 / rc=2pass / mbtree=0 / bitrate=4830 / ratetol=1.0 / qcomp=0.60 / qpmin=0 / qpmax=69 / qpstep=4 / cplxblur=20.0 / qblur=0.5 / vbv_maxrate=50000 / vbv_bufsize=50000 / nal_hrd=none / filler=0 / ip_ratio=1.40 / pb_ratio=1.30 / aq=1:1.00 / zones=173970,177855,b=0.25
Language : Russian
Default : No
Forced : No

Audio
ID : 2
Format : AC-3
Format/Info : Audio Coding 3
Mode extension : CM (complete main)
Codec ID : A_AC3
Duration : 1h 58mn
Bit rate mode : Constant
Bit rate : 448 Kbps
Channel(s) : 6 channels
Channel positions : Front: L C R, Side: L R, LFE
Sampling rate : 48.0 KHz
Bit depth : 16 bits
Compression mode : Lossy
Stream size : 380 MiB (8%)
Language : Russian
Default : Yes
Forced : No

Menu
00:00:00.000 : en:Chapter 01
00:03:17.280 : en:Chapter 02
00:10:14.840 : en:Chapter 03
00:16:16.200 : en:Chapter 04
00:31:32.520 : en:Chapter 05
00:44:49.320 : en:Chapter 06
00:55:05.720 : en:Chapter 07
01:06:08.760 : en:Chapter 08
01:13:03.960 : en:Chapter 09
01:27:21.680 : en:Chapter 10
01:43:35.040 : en:Chapter 11
01:55:58.600 : en:Chapter 12
01:58:34.160 : en:Chapter 13









Сравнение трансферов.



   Похожие торренты   Торрент   Размер 
В этой теме нет новых непрочитанных сообщений. Три мушкетера [01-10 из 10] (2013) BDRip 720p

114 | 90

13.33 ГБ

В этой теме нет новых непрочитанных сообщений. Три мушкетера (2013) BDRip 720p

13 | 2

4.37 ГБ

В этой теме нет новых непрочитанных сообщений. Три мушкетера (2013) BDRip 720p от Leonardo and Scarabey | Лицензия

8 | 8

7.19 ГБ

В этой теме нет новых непрочитанных сообщений. Три мушкетера (2013) BDRip-AVC от ExKinoRay

4 | 2

3.41 ГБ

В этой теме нет новых непрочитанных сообщений. Три мушкетера (2013) BDRip-AVC от HELLYWOOD | Лицензия

4 | 6

2.92 ГБ

В этой теме нет новых непрочитанных сообщений. Три мушкетера (2013) BDRip-AVC от FilmRus | Лицензия

4 | 2

2.14 ГБ

В этой теме нет новых непрочитанных сообщений. Три мушкетера (2013) BDRip от HQCLUB | Лицензия

59 | 11

2.18 ГБ




Вы не можете начинать темы
Вы не можете отвечать на сообщения
Вы не можете редактировать свои сообщения
Вы не можете удалять свои сообщения
Вы не можете добавлять вложения

Перейти:  
Для Мосгорсуда, Роскомнадзора и рекламодателей: mosgorsud-torrent[собачка]yandex.ru
 Вход
ppkBB3cker v.2 © 2008-2014 @ PPK
[ Time : 0.020s | 16 Queries | GZIP : Off ]

Торрент трекер RUTOR.IN, Не можете зайти на rutor.org? Какой новый адрес рутор? Какое зеркало рутор? Не работает rutor.org и зеркала? Тогда наш торрент специально для вас. Rutor.in неофициальное зеркало rutor. В случае если у Вас заблокирован rutor или вдруг Вы не можете на него зайти, то Вы без труда сможете скачать бесплатно и без рекламы последние новинки кино, игр, сериалов и прочего у нас, на Rutor.in. Не нужно использовать прокси, чтобы зайти на рутор, достаточно воспользоваться нашим ресурсом. Все новые фильмы, игры, сериалы, книги и музыка за 2013 и 2014 годы через торрент бесплатно. Скачивайте фильмы в хорошем качестве, игры для пк, xbox, playstation без регистрации. У нас вы найдете новые Зарубежные сериалы и Русские сериалы 2013, 2014, 2015 годов. Оставайтесь с нами, качайте любимые фильмы, игры, сериалы, книги и музыку.
cron