img image001 image001 image001 image001 image001 image001 image001 image001 image001 image001 image001 image001 image001 image001 image001

Planets Sun Sun Sun
Статистика раздачи
Автор: Nickolas3434 | Размер: 746.14 МБ | Добавлен: 27 сен 2014
Раздают: 31    Качают: 5
Скачать торрент
Скачать торрент
Описание торрента

СообщениеДобавлено: 27 сен 2014 

Информация о фильме
Название: Ты и я
Оригинальное название: You and I
Год выхода: 2011
Жанр: Драма, мелодрама, комедия
Режиссер: Роланд Жоффе
В ролях: Миша Бартон, Шантель Ван Сантен, Антон Ельчин, Алекс Калужский, Чарли Крид-Майлз, Хелена Мэттссон, Игорь Десятников, Александр Белоногов, Лена Катина, Юлия Волкова

О фильме:
Главная героиня фильма - шестнадцатилетняя американка Джейни Соер - недавно переехала в Москву и «влюбилась» в группу Тату. На почве музыкальных пристрастий героиня знакомится в чате с русской сверстницей Ланой Старковой, и они вместе отправляются на концерт. Но, оказывается, не так-то просто попасть в Москве на стадион. По пути девчонок ожидает масса неожиданностей и опасностей, которые таит ночной город и проверят их дружбу на прочность.



Страна: США, Россия
Студия: Angels Kiss, RAMCO
Продолжительность: 01:40:42
Перевод: Дублированный [Мосфильм-Мастер]

Файл
Кодек: XviD
Качество: HDRip
Видео: XviD, 640x272 (2.35:1), 900 Кбит/с, 23,976 кадр/с
Аудио: Русский, MP3, 48000 Гц, 128 Кбит/с, 2 канала (Стерео) - DUB, R5 [Мосфильм-Мастер]
Субтитры: Нет



• Фильм снят по мотивам романа Алексея Митрофанова и Анастасии Моисеевой «Та Ту Кам Бэк» (2006).
• Картина снята на плёнке формата 2х35.
• Первоначально фильм должен был назваться «Finding t.A.T.u.» (В поисках t.A.T.u.).
• Сценарий фильма «Ты и я» переделывали 12 раз. Окончательный вариант вышел с досъёмкой в Лос-Анджелесе. Большая же часть съемочного процесса происходила в России.
General
Complete name : Ty.i.ya.2011.HDRip.avi
Format : AVI
Format/Info : Audio Video Interleave
File size : 746 MiB
Duration : 1h 40mn
Overall bit rate : 1 037 Kbps
Movie name : Ты и я / You and I (2011) HDRip
Genre : Драма, мелодрама, комедия
Recorded date : 26.09.2014
Writing application : VirtualDubMod 1.5.10.3 | www.virtualdub-fr.org || (build 2550/release)
Writing library : VirtualDubMod build 2550/release
Copyright : rip by ivandubskoj

Video
ID : 0
Format : MPEG-4 Visual
Format profile : Advanced Simple@L5
Format settings, BVOP : 2
Format settings, QPel : No
Format settings, GMC : No warppoints
Format settings, Matrix : Custom
Codec ID : XVID
Codec ID/Hint : XviD
Duration : 1h 40mn
Bit rate : 900 Kbps
Width : 640 pixels
Height : 272 pixels
Display aspect ratio : 2.35:1
Frame rate : 23.976 fps
Color space : YUV
Chroma subsampling : 4:2:0
Bit depth : 8 bits
Scan type : Progressive
Compression mode : Lossy
Bits/(Pixel*Frame) : 0.215
Stream size : 647 MiB (87%)
Writing library : XviD 73

Audio
ID : 1
Format : MPEG Audio
Format version : Version 1
Format profile : Layer 3
Codec ID : 55
Codec ID/Hint : MP3
Duration : 1h 40mn
Bit rate mode : Constant
Bit rate : 128 Kbps
Channel(s) : 2 channels
Sampling rate : 48.0 KHz
Compression mode : Lossy
Stream size : 92.2 MiB (12%)
Alignment : Aligned on interleaves
Interleave, duration : 42 ms (1.00 video frame)
Interleave, preload duration : 504 ms
Title : Russian, DUB, R5 [Мосфильм-Мастер]
Writing library : LAME3.99r
Encoding settings : -m s -V 4 -q 0 -lowpass 17 -b 128

Автор рипа - ivandubskoj



   Похожие торренты   Торрент   Размер 
В этой теме нет новых непрочитанных сообщений. Ты и я / You and I (2011) HDRip от ivandubskoj | Лицензия

139 | 18

2.05 ГБ

В этой теме нет новых непрочитанных сообщений. Мамы 3 (2014) HDRip от ivandubskoj | Лицензия

70 | 7

744.07 МБ

В этой теме нет новых непрочитанных сообщений. Ёлки лохматые (2014) HDRip от ivandubskoj | Лицензия

358 | 5

700.29 МБ

В этой теме нет новых непрочитанных сообщений. Ты и я / You and I (2011) HDRip от ivandubskoj | D

51 | 11

1.46 ГБ

В этой теме нет новых непрочитанных сообщений. Беременный (2011) BDRip от ivandubskoj | Лицензия

20 | 10

701.46 МБ

В этой теме нет новых непрочитанных сообщений. Беременный (2011) Blu-ray Remux 1080p от ivandubskoj | Лицензия

4 | 6

13.63 ГБ

В этой теме нет новых непрочитанных сообщений. Безумная свадьба / Qu'est-ce qu'on a fait au Bon Dieu? (2014) HDRip от ivandubskoj | Лицензия

343 | 52

745.44 МБ




Вы не можете начинать темы
Вы не можете отвечать на сообщения
Вы не можете редактировать свои сообщения
Вы не можете удалять свои сообщения
Вы не можете добавлять вложения

Перейти:  
Для Мосгорсуда, Роскомнадзора и рекламодателей: mosgorsud-torrent[собачка]yandex.ru
 Вход
ppkBB3cker v.2 © 2008-2014 @ PPK
[ Time : 0.035s | 15 Queries | GZIP : Off ]

Торрент трекер RUTOR.IN, Не можете зайти на rutor.org? Какой новый адрес рутор? Какое зеркало рутор? Не работает rutor.org и зеркала? Тогда наш торрент специально для вас. Rutor.in неофициальное зеркало rutor. В случае если у Вас заблокирован rutor или вдруг Вы не можете на него зайти, то Вы без труда сможете скачать бесплатно и без рекламы последние новинки кино, игр, сериалов и прочего у нас, на Rutor.in. Не нужно использовать прокси, чтобы зайти на рутор, достаточно воспользоваться нашим ресурсом. Все новые фильмы, игры, сериалы, книги и музыка за 2013 и 2014 годы через торрент бесплатно. Скачивайте фильмы в хорошем качестве, игры для пк, xbox, playstation без регистрации. У нас вы найдете новые Зарубежные сериалы и Русские сериалы 2013, 2014, 2015 годов. Оставайтесь с нами, качайте любимые фильмы, игры, сериалы, книги и музыку.
cron