img image001 image001 image001 image001 image001 image001 image001 image001 image001 image001 image001 image001 image001 image001 image001

Planets Sun Sun Sun
Статистика раздачи
Автор: Nickolas3434 | Размер: 1.45 ГБ | Добавлен: 01 окт 2014
Раздают: 128    Качают: 15
Скачать торрент
Скачать торрент
Описание торрента

СообщениеДобавлено: 01 окт 2014 

Страна: СССР
Производство: Гостелерадио, Свердловская киностудия

Жанр: драма, мелодрама, комедия
Год выпуска: 1978
Продолжительность: 02:08:27 (01:02:51 + 01:05:36)

Перевод: не требуется
Оригинальная аудиодорожка: русский
Cубтитры: нет

Режиссер: Михаил Козаков

В ролях:
Анастасия Вертинская, Игорь Костолевский, Михаил Козаков, Григорий Лямпе, Светлана Крючкова, Михаил Светин, Ирина Савина, Алла Будницкая, Илья Рутберг, Александр Пятков (озвучание - Рогволд Суховерко), Семён Берлин (озвучание - Юрий Саранцев), Евгений Тиличеев, Владимир Курашкин, Ольга Феофанова, Вера Линд, Михаил Козаков (закадровый текст)

Описание:
Однажды в маленьком городе происходит невероятное происшествие: на вокзале останавливается дизель-электропоезд, всегда следовавший без остановок. Более того, на ночном перроне оказывается одинокая красавица — одна из тех, что никогда прежде не заезжали так далеко от Бухареста. Учитель Марин Мирою дает красавице Моне приют на ночь. Конечно же, молодые люди понимают, что влюблены и решают не расставаться. Но наступает день, и за красавицей приезжает ее друг. Тогда вся романтика исчезает, и прекрасная история любви превращается в обыкновенный эпизод из жизни взрослых людей. Так все участники этого приключения понимают, что «ни одна звезда никогда не отклоняется от своего пути».





Исходник: DVD9 R5
Тип релиза: DVDRip
Контейнер: AVI

Видео: 720x528 (4:3), 25 fps, XviD ~ 1482 kbps avg, 0.156 bit/pixel
Аудио: 48 kHz, MP3 2.0, 128 kbps

Раздача от:
Общее
Полное имя : Bezymyannaya.zvezda.1978.DVDRip-1.46_[New-team]_by_AVP_Studio.avi
Формат : AVI
Формат/Информация : Audio Video Interleave
Размер файла : 760 Мбайт
Продолжительность : 1 ч. 5 м.
Общий поток : 1619 Кбит/сек
Программа кодирования : VirtualDubModRus 1.5.10.2 (build 2542/release)
Библиотека кодирования : VirtualDubMod build 2542/release

Видео
Идентификатор : 0
Формат : MPEG-4 Visual
Профиль формата : Advanced Simple@L5
Параметр BVOP формата : 1
Параметр QPel формата : Нет
Параметр GMC формата : Без точки перехода
Параметр матрицы формата : Выборочная
Идентификатор кодека : XVID
Идентификатор кодека/Подсказка : XviD
Продолжительность : 1 ч. 5 м.
Битрейт : 1482 Кбит/сек
Ширина : 720 пикселей
Высота : 528 пикселей
Соотношение сторон : 4:3
Частота кадров : 25,000 кадров/сек
Цветовое пространство : YUV
Субдискретизация насыщенности : 4:2:0
Битовая глубина : 8 бит
Тип развёртки : Прогрессивная
Метод сжатия : С потерями
Бит/(Пиксели*Кадры) : 0.156
Размер потока : 695 Мбайт (91%)
Библиотека кодирования : XviD 73

Аудио
Идентификатор : 1
Формат : MPEG Audio
Версия формата : Version 1
Профиль формата : Layer 3
Идентификатор кодека : 55
Идентификатор кодека/Подсказка : MP3
Продолжительность : 1 ч. 5 м.
Вид битрейта : Постоянный
Битрейт : 128 Кбит/сек
Каналы : 2 канала
Частота : 48,0 КГц
Метод сжатия : С потерями
Размер потока : 60,1 Мбайт (8%)
Выравнивание : Соединение по промежуткам
Продолжительность промежутка : 40 мс. (1,00 видеокадр)
Время предзагрузки промежутка : 504 мс.
Библиотека кодирования : LAME3.99r
Настройки программы : -m s -V 4 -q 2 -lowpass 17 -b 128





   Похожие торренты   Торрент   Размер 
В этой теме нет новых непрочитанных сообщений. Безымянная звезда (1978) DVDRip от New-Team

23 | 6

2.18 ГБ

В этой теме нет новых непрочитанных сообщений. Безымянная звезда (1978) DVDRip-AVC от New-Team

89 | 5

2.18 ГБ

В этой теме нет новых непрочитанных сообщений. Безымянная звезда (1978) DVDRip-AVC от ExKinoRay

120 | 59

2.78 ГБ

В этой теме нет новых непрочитанных сообщений. Безымянная звезда (2 серии из 2) (1978) DVDRip

37 | 5

1.27 ГБ

В этой теме нет новых непрочитанных сообщений. Безымянная звезда (1978) DVDRip | Реставрация

28 | 11

2.19 ГБ

В этой теме нет новых непрочитанных сообщений. Безымянная звезда (1978) DVD9 | Реставрация

8 | 3

6.58 ГБ

В этой теме нет новых непрочитанных сообщений. Звезда надежды (1978) DVDRip

3 | 7

2.8 ГБ




Вы не можете начинать темы
Вы не можете отвечать на сообщения
Вы не можете редактировать свои сообщения
Вы не можете удалять свои сообщения
Вы не можете добавлять вложения

Перейти:  
Для Мосгорсуда, Роскомнадзора и рекламодателей: mosgorsud-torrent[собачка]yandex.ru
 Вход
ppkBB3cker v.2 © 2008-2014 @ PPK
[ Time : 0.039s | 15 Queries | GZIP : Off ]

Торрент трекер RUTOR.IN, Не можете зайти на rutor.org? Какой новый адрес рутор? Какое зеркало рутор? Не работает rutor.org и зеркала? Тогда наш торрент специально для вас. Rutor.in неофициальное зеркало rutor. В случае если у Вас заблокирован rutor или вдруг Вы не можете на него зайти, то Вы без труда сможете скачать бесплатно и без рекламы последние новинки кино, игр, сериалов и прочего у нас, на Rutor.in. Не нужно использовать прокси, чтобы зайти на рутор, достаточно воспользоваться нашим ресурсом. Все новые фильмы, игры, сериалы, книги и музыка за 2013 и 2014 годы через торрент бесплатно. Скачивайте фильмы в хорошем качестве, игры для пк, xbox, playstation без регистрации. У нас вы найдете новые Зарубежные сериалы и Русские сериалы 2013, 2014, 2015 годов. Оставайтесь с нами, качайте любимые фильмы, игры, сериалы, книги и музыку.