img image001 image001 image001 image001 image001 image001 image001 image001 image001 image001 image001 image001 image001 image001 image001

Planets Sun Sun Sun
Статистика раздачи
Автор: Nickolas3434 | Размер: 1.46 ГБ | Добавлен: 01 окт 2014
Раздают: 76    Качают: 8
Скачать торрент
Скачать торрент
Описание торрента

СообщениеДобавлено: 01 окт 2014 

«Человек. Волк. Природа. Кто кого?»



Страна: Россия
Производство: «Актуальный фильм»

Жанр: драма, приключения
Год выпуска: 2004
Продолжительность: 01:41:03

Перевод: не требуется
Оригинальная аудиодорожка: русский
Cубтитры: нет

Режиссер: Николай Соловцов

В ролях:
Олег Фомин, Елена Дробышева, Владимир Гостюхин, Лев Дуров, Лев Борисов, Александр Тютин, Наталья Казначеева, Ирина Савина, Алексей Хардиков, Геннадий Галкин, Маша Вишнякова...

Описание:
Герой фильма — Егор — потомственный охотник-волчатник. Он жил среди природы, как жили его дед и прадеды: растил дочь, любил лес, охотился, отстреливал волков. Но вдруг его жизнь пересекается с жизнью необыкновенной ВОЛЧИЦЫ. История которая произошла с Егором и вожаком стаи — умной, опытной, — а потому крайне опасной волчицей и стала сюжетом фильма. Человеку и зверю придётся пройти через множество испытаний, которые изменят их. Месть, ненависть, любовь, предательство, стремление понять друг друга и невозможность договориться — все эти чувства перживут вместе с главными героями и жители небольшой российской деревушки где происходит действие фильма.





Исходник: DVD5 R5
Тип релиза: DVDRip
Контейнер: AVI

Видео: 704x416 (1,692:1), 25 fps, XviD ~ 1863 kbps avg, 0.254 bit/pixel
Аудио: 48 kHz, Dolby Digital AC3 2.0, 192 kbps

Раздача от:
Общее
Полное имя : Vesegonskaya.volchica.2004.DVDRip_[New-team]_by_AVP_Studio.avi
Формат : AVI
Формат/Информация : Audio Video Interleave
Размер файла : 1,46 Гбайт
Продолжительность : 1 ч. 41 м.
Общий поток : 2064 Кбит/сек
Программа кодирования : VirtualDubModRus 1.5.10.2 (build 2542/release)
Библиотека кодирования : VirtualDubMod build 2542/release

Видео
Идентификатор : 0
Формат : MPEG-4 Visual
Профиль формата : Advanced Simple@L5
Параметр BVOP формата : 1
Параметр QPel формата : Нет
Параметр GMC формата : Без точки перехода
Параметр матрицы формата : Выборочная
Идентификатор кодека : XVID
Идентификатор кодека/Подсказка : XviD
Продолжительность : 1 ч. 41 м.
Битрейт : 1863 Кбит/сек
Ширина : 704 пикселя
Высота : 416 пикселей
Соотношение сторон : 1,692
Частота кадров : 25,000 кадров/сек
Цветовое пространство : YUV
Субдискретизация насыщенности : 4:2:0
Битовая глубина : 8 бит
Тип развёртки : Прогрессивная
Метод сжатия : С потерями
Бит/(Пиксели*Кадры) : 0.254
Размер потока : 1,31 Гбайт (90%)
Библиотека кодирования : XviD 73

Аудио
Идентификатор : 1
Формат : AC-3
Формат/Информация : Audio Coding 3
Расширение режима : CM (complete main)
Параметр Endianness формата : Big
Идентификатор кодека : 2000
Продолжительность : 1 ч. 41 м.
Вид битрейта : Постоянный
Битрейт : 192 Кбит/сек
Каналы : 2 канала
Расположение каналов : Front: L R
Частота : 48,0 КГц
Битовая глубина : 16 бит
Метод сжатия : С потерями
Размер потока : 139 Мбайт (9%)
Выравнивание : Разделение по промежуткам
Продолжительность промежутка : 40 мс. (1,00 видеокадр)
Время предзагрузки промежутка : 500 мс





   Похожие торренты   Торрент   Размер 
В этой теме нет новых непрочитанных сообщений. Весьегонская волчица (2004) DVDRip-AVC от New-Team

328 | 32

1.46 ГБ

В этой теме нет новых непрочитанных сообщений. Весьегонская волчица (2004) DVDRip от New-Team

69 | 7

744.82 МБ

В этой теме нет новых непрочитанных сообщений. Весьегонская волчица (2004) DVDRip от -=HD-NET=-| КПК

62 | 8

348.51 МБ

В этой теме нет новых непрочитанных сообщений. Весьегонская волчица (2004) DVDRip от PlanetaUA

9 | 32

1.37 ГБ

В этой теме нет новых непрочитанных сообщений. Борис Воробьёв - Весьегонская волчица (2015) MP3

69 | 2

371.6 МБ

В этой теме нет новых непрочитанных сообщений. Волчица / Wilczyca (1982) DVDRip

46 | 18

1.46 ГБ

В этой теме нет новых непрочитанных сообщений. Волчица / Wilczyca (1982) DVDRip

43 | 1

1.46 ГБ




Вы не можете начинать темы
Вы не можете отвечать на сообщения
Вы не можете редактировать свои сообщения
Вы не можете удалять свои сообщения
Вы не можете добавлять вложения

Перейти:  
Для Мосгорсуда, Роскомнадзора и рекламодателей: mosgorsud-torrent[собачка]yandex.ru
 Вход
ppkBB3cker v.2 © 2008-2014 @ PPK
[ Time : 1.946s | 18 Queries | GZIP : Off ]

cron