img image001 image001 image001 image001 image001 image001 image001 image001 image001 image001 image001 image001 image001 image001 image001

Planets Sun Sun Sun
Статистика раздачи
Автор: Nickolas3434 | Размер: 2.29 ГБ | Добавлен: 03 окт 2014
Раздают: 40    Качают: 23
Скачать торрент
Скачать торрент
Описание торрента

СообщениеДобавлено: 03 окт 2014 

Информация о фильме
Название: Стачка
Оригинальное название: Strike / Stachka
Год выхода: 1925
Жанр: Драма
Режиссер: Сергей Эйзенштейн
В ролях: Максим Штраух, Григорий Александров, Михаил Гоморов, А. Иванов, Иван Клюквин, Александр Антонов, Юдифь Глизер, Анатолий Кузнецов, Вера Янукова, Владимир Уральский

О фильме: Историко-революционный фильм. На одном из крупнейших заводов России организовывается стачка, поводом для которой послужило самоубийство рабочего, несправедливо обвиненного администрацией завода в краже инструментов.



Страна: СССР
Студия: Госкино, Пролеткульт
Продолжительность: 01:28:57
Перевод: Субиттры (Немое кино)

Файл
Кодек: MPEG-4 AVC
Качество: BDRip-AVC
Видео: 3500 Кбит/с, 768х576, 23.976 кадр/с
Звук:
Аудио: Английский (AC3, 2 ch, 192 Кбит/с)
Субтитры: Русские

Семпл

Общее
Уникальный идентификатор : 246121908671581897333526461048044747754 (0xB9295AFAB5CF729E90E7DA71F57D7BEA)
Полное имя : D:2Films DРелизыStachka.1925.x264.BDRip.AVC.MediaClub.mkv
Формат : Matroska
Версия формата : Version 4 / Version 2
Размер файла : 2,29 Гбайт
Продолжительность : 1 ч. 28 м.
Общий поток : 3687 Кбит/сек
Название фильма : -= MediaClub =- rip by Lefevr
Дата кодирования : UTC 2014-09-19 00:55:18
Программа кодирования : mkvmerge v6.6.0 ('The Edge Of The In Between') built on Dec 1 2013 17:55:00
Библиотека кодирования : libebml v1.3.0 + libmatroska v1.4.1

Видео
Идентификатор : 1
Формат : AVC
Формат/Информация : Advanced Video Codec
Профиль формата : High@L4.1
Параметр CABAC формата : Да
Параметр ReFrames формата : 9 кадров
Идентификатор кодека : V_MPEG4/ISO/AVC
Продолжительность : 1 ч. 28 м.
Битрейт : 3500 Кбит/сек
Ширина : 768 пикселей
Высота : 576 пикселей
Соотношение сторон : 4:3
Режим частоты кадров : Постоянный
Частота кадров : 23,976 кадра/сек
Цветовое пространство : YUV
Субдискретизация насыщенности : 4:2:0
Битовая глубина : 8 бит
Тип развёртки : Прогрессивная
Бит/(Пиксели*Кадры) : 0.330
Размер потока : 2,13 Гбайт (93%)
Заголовок : Stachka.1925.x264.BDRip.AVC.MediaClub
Библиотека кодирования : x264 core 142 r2409+42 04be48a tMod [8-bit@4:2:0 X86]
Настройки программы : cabac=1 / ref=9 / deblock=1:-3:-3 / analyse=0x3:0x133 / me=umh / subme=11 / psy=1 / fade_compensate=0.00 / psy_rd=1.00:0.25 / mixed_ref=1 / me_range=32 / chroma_me=1 / trellis=2 / 8x8dct=1 / cqm=0 / deadzone=21,11 / fast_pskip=0 / chroma_qp_offset=-4 / threads=6 / lookahead_threads=1 / sliced_threads=0 / nr=0 / decimate=0 / interlaced=0 / bluray_compat=0 / constrained_intra=0 / fgo=0 / bframes=8 / b_pyramid=2 / b_adapt=2 / b_bias=0 / direct=3 / weightb=1 / open_gop=0 / weightp=2 / keyint=240 / keyint_min=23 / scenecut=40 / intra_refresh=0 / rc=2pass / mbtree=0 / bitrate=3500 / ratetol=1.0 / qcomp=0.60 / qpmin=0:0:0 / qpmax=69:69:69 / qpstep=4 / cplxblur=20.0 / qblur=0.5 / ip_ratio=1.40 / pb_ratio=1.30 / aq=1:1.00 / aq-sensitivity=10.00 / aq-factor=1.00:1.00:1.00 / aq2=0 / aq3=0
Язык : English
Default : Да
Forced : Да

Аудио
Идентификатор : 2
Формат : AC-3
Формат/Информация : Audio Coding 3
Расширение режима : CM (complete main)
Параметр Endianness формата : Big
Идентификатор кодека : A_AC3
Продолжительность : 1 ч. 28 м.
Вид битрейта : Постоянный
Битрейт : 192 Кбит/сек
Каналы : 2 канала
Расположение каналов : Front: L R
Частота : 48,0 КГц
Битовая глубина : 16 бит
Метод сжатия : С потерями
Размер потока : 122 Мбайт (5%)
Заголовок : TRACK_01_ORIGINAL_ENG
Язык : English
Default : Да
Forced : Да

Текст
Идентификатор : 3
Формат : UTF-8
Идентификатор кодека : S_TEXT/UTF8
Идентификатор кодека/Информация : UTF-8 Plain Text
Заголовок : TEXT_01_SUB_RUS
Язык : Russian
Default : Нет
Forced : Нет

Меню
00:00:00.000 : en:Chapter 01
00:04:00.114 : en:Chapter 02
00:06:10.703 : en:Chapter 03
00:11:19.970 : en:Chapter 04
00:18:20.891 : en:Chapter 05
00:25:39.454 : en:Chapter 06
00:32:25.610 : en:Chapter 07
00:37:01.302 : en:Chapter 08
00:40:51.949 : en:Chapter 09
00:46:09.892 : en:Chapter 10
00:52:51.001 : en:Chapter 11
01:02:15.648 : en:Chapter 12
01:09:33.711 : en:Chapter 13
01:17:57.005 : en:Chapter 14
01:21:52.866 : en:Chapter 15
01:28:55.663 : en:Chapter 16

...last pass...

x264.exe: --pass 2 --bitrate 3500 --preset slow --profile high --level 4.1 --ref 9 --deblock -3:-3 --merange 32 --bframes 8 --trellis 2 --no-fast-pskip --no-dct-decimate --psy-rd 1.00:0.25 --partitions all --subme 11 --no-mbtree --keyint 240 --sar 1:1 --stats "C:1Films CРелизыStrike11111.log" --output "C:1Films CРелизыStrike11111.mkv" "C:Temp358.avs"

avs [info]: 768x576p 1:1 @ 24000/1001 fps (cfr)
avs [info]: color matrix: undef
x264 [info]: using SAR=1/1
x264 [info]: using cpu capabilities: MMX2 SSE2Fast SSSE3 SSE4.2 AVX
x264 [info]: profile High, level 4.1
x264 [info]: cabac=1 ref=9 deblock=1:-3:-3 analyse=0x3:0x133 me=umh subme=11 psy=1 fade_compensate=0.00 psy_rd=1.00:0.25 mixed_ref=1 me_range=32 chroma_me=1 trellis=2 8x8dct=1 cqm=0 deadzone=21,11 fast_pskip=0 chroma_qp_offset=-4 threads=6 lookahead_threads=1 sliced_threads=0 nr=0 decimate=0 interlaced=0 bluray_compat=0 constrained_intra=0 fgo=0 bframes=8 b_pyramid=2 b_adapt=2 b_bias=0 direct=3 weightb=1 open_gop=0 weightp=2 keyint=240 keyint_min=23 scenecut=40 intra_refresh=0 rc=2pass mbtree=0 bitrate=3500 ratetol=1.0 qcomp=0.60 qpmin=0:0:0 qpmax=69:69:69 qpstep=4 cplxblur=20.0 qblur=0.5 ip_ratio=1.40 pb_ratio=1.30 aq=1:1.00 aq-sensitivity=10.00 aq-factor=1.00:1.00:1.00 aq2=0 aq3=0
x264 [info]: started at Mon Jun 30 01:08:03 2014
x264 [info]: frame I:1157 Avg QP:17.25 size: 62340
x264 [info]: frame P:26800 Avg QP:21.74 size: 32721
x264 [info]: frame B:99734 Avg QP:20.88 size: 13847
x264 [info]: consecutive B-frames: 2.3% 1.8% 4.3% 21.8% 32.5% 17.4% 3.8% 2.2% 13.7%
x264 [info]: mb I I16..4: 19.1% 57.3% 23.7%
x264 [info]: mb P I16..4: 0.7% 20.4% 3.6% P16..4: 25.1% 26.8% 9.6% 1.8% 0.2% skip:11.8%
x264 [info]: mb B I16..4: 0.0% 5.4% 0.5% B16..8: 23.4% 15.4% 3.4% direct: 6.5% skip:45.4% L0:42.9% L1:40.2% BI:16.9%
x264 [info]: 8x8 transform intra:84.0% inter:53.4%
x264 [info]: direct mvs spatial:97.4% temporal:2.6%
x264 [info]: coded y,uvDC,uvAC intra: 94.5% 0.0% 0.0% inter: 30.9% 0.0% 0.0%
x264 [info]: i16 v,h,dc,p: 33% 9% 23% 36%
x264 [info]: i8 v,h,dc,ddl,ddr,vr,hd,vl,hu: 10% 8% 10% 10% 13% 12% 12% 12% 13%
x264 [info]: i4 v,h,dc,ddl,ddr,vr,hd,vl,hu: 9% 7% 6% 10% 15% 13% 14% 12% 14%
x264 [info]: i8c dc,h,v,p: 79% 21% 0% 0%
x264 [info]: Weighted P-Frames: Y:45.8% UV:0.0%
x264 [info]: ref P L0: 39.3% 10.9% 15.1% 8.8% 7.0% 5.7% 5.0% 3.3% 3.2% 1.5% 0.2%
x264 [info]: ref B L0: 69.5% 11.0% 7.2% 4.0% 3.3% 2.5% 1.7% 0.7%
x264 [info]: ref B L1: 93.1% 6.9%
x264 [info]: kb/s:3500.09

encoded 127691 frames, 4.695 fps, 3500.09 kb/s, 2222.1 MB



Релиз от: | Автор рипа:
За исходник спасибо HDClub.



   Похожие торренты   Торрент   Размер 
В этой теме нет новых непрочитанных сообщений. Радио - Сборник 1925-2012 (1925-2012) DJVU, PDF

24 | 11

7.6 ГБ

В этой теме нет новых непрочитанных сообщений. Джей и молчаливый Боб наносят ответный удар / Jay and Silent Bob Strike Back (2001) BDRip-AVC от MediaClub | D, P, A

161 | 22

3.43 ГБ

В этой теме нет новых непрочитанных сообщений. Counter-Strike - FileClub BOX Shooter Edition v.1.1 (Counter-Strike 1.6, Counter-Strike Source, CrossFire, Cracked Steam, Steam) (2011) PC

196 | 26

2.58 ГБ

В этой теме нет новых непрочитанных сообщений. Броненосец «Потемкин» (1925) BDRip-AVC | iPad

10 | 13

2 ГБ

В этой теме нет новых непрочитанных сообщений. Броненосец Потемкин (1925) BDRip-AVC от ExKinoRay

94 | 14

1.47 ГБ

В этой теме нет новых непрочитанных сообщений. Золотая лихорадка / The Gold Rush (1925) BDRip от HQCLUB

33 | 5

1.09 ГБ

В этой теме нет новых непрочитанных сообщений. Броненосец «Потемкин» (1925) BDRip (1080p) от NOLIMITS-TEAM

3 | 3

3.62 ГБ




Вы не можете начинать темы
Вы не можете отвечать на сообщения
Вы не можете редактировать свои сообщения
Вы не можете удалять свои сообщения
Вы не можете добавлять вложения

Перейти:  
Для Мосгорсуда, Роскомнадзора и рекламодателей: mosgorsud-torrent[собачка]yandex.ru
 Вход
ppkBB3cker v.2 © 2008-2014 @ PPK
[ Time : 0.617s | 16 Queries | GZIP : Off ]

cron