img image001 image001 image001 image001 image001 image001 image001 image001 image001 image001 image001 image001 image001 image001 image001

Planets Sun Sun Sun
Статистика раздачи
Автор: Nickolas3434 | Размер: 3.46 ГБ | Добавлен: 05 окт 2014
Раздают: 71    Качают: 3
Скачать торрент
Скачать торрент
Описание торрента

СообщениеДобавлено: 05 окт 2014 

Информация о фильме
Оригинальное название: Девушка и смерть
Год выхода: 2012
Жанр: Драма
Режиссер: Йос Стеллинг
В ролях: Сильвия Хукс, Леонид Бичевин, Сергей Маковецкий, Максим Ковалевский, Джим ван дер Вауде, Анри Гарсен, Ева-Мария Курц, Светлана Светличная

О фильме:
Николай возвращается в заброшенный отель, где пятьдесят лет назад он встретил свою единственную любовь. Охваченный воспоминаниями, он заново переживает трагическую историю своей юности, являясь одновременно рассказчиком и героем повествования. Действие разворачивается в трех временных пластах — в конце XIX века (времена юности героя), в пятидесятые годы XX века и в наши дни


Страна: Россия, Нидерланды, Германия
Студия: Algemene Vereniging Radio Omroep (AVRO), Jos Stelling Filmprodukties BV, Ma.ja.de. Fiction, Твинди
Продолжительность: 02:02:15
Язык: Русский

Файл
Кодек: MPEG-4 AVC
Качество: HDTVRip 720p
Видео: 3600 Кбит/с, 1280x536, 25.000 кадр/с
Звук: Русский (АС3, 6 ch, 448 Кбит/с)

Семпл


Общее
Полное имя : Devushka.i.smert2012.x264.HDTVRip(720p).MediaClub.mkv
Формат : Matroska
Версия формата : Version 2
Размер файла : 3,46 Гбайт
Продолжительность : 2 ч. 2 м.
Общий поток : 4047 Кбит/сек
Название фильма : MediaClub
Дата кодирования : UTC 2014-10-03 13:20:25
Программа кодирования : mkvmerge v5.4.0 ('Piper') built on Mar 10 2012 13:34:39
Библиотека кодирования : libebml v1.2.3 + libmatroska v1.3.0

Видео
Идентификатор : 1
Формат : AVC
Формат/Информация : Advanced Video Codec
Профиль формата : High@L4.1
Параметр CABAC формата : Да
Параметр ReFrames формата : 10 кадров
Идентификатор кодека : V_MPEG4/ISO/AVC
Продолжительность : 2 ч. 2 м.
Битрейт : 3600 Кбит/сек
Ширина : 1280 пикселей
Высота : 536 пикселей
Соотношение сторон : 2,40:1
Режим частоты кадров : Постоянный
Частота кадров : 25,000 кадров/сек
Цветовое пространство : YUV
Субдискретизация насыщенности : 4:2:0
Битовая глубина : 8 бит
Тип развёртки : Прогрессивная
Бит/(Пиксели*Кадры) : 0.210
Размер потока : 3,00 Гбайт (87%)
Библиотека кодирования : x264 core 125 r2208 d9d2288
Настройки программы : cabac=1 / ref=10 / deblock=1:-3:-2 / analyse=0x3:0x133 / me=umh / subme=10 / psy=1 / psy_rd=1.00:0.20 / mixed_ref=1 / me_range=48 / chroma_me=1 / trellis=2 / 8x8dct=1 / cqm=0 / deadzone=21,11 / fast_pskip=0 / chroma_qp_offset=-3 / threads=6 / lookahead_threads=1 / sliced_threads=0 / nr=0 / decimate=0 / interlaced=0 / bluray_compat=0 / constrained_intra=0 / bframes=8 / b_pyramid=2 / b_adapt=2 / b_bias=0 / direct=3 / weightb=1 / open_gop=0 / weightp=2 / keyint=250 / keyint_min=25 / scenecut=40 / intra_refresh=0 / rc=2pass / mbtree=0 / bitrate=3600 / ratetol=1.0 / qcomp=0.60 / qpmin=0 / qpmax=69 / qpstep=4 / cplxblur=20.0 / qblur=0.5 / ip_ratio=1.40 / pb_ratio=1.30 / aq=1:1.00
Default : Да
Forced : Нет

Аудио
Идентификатор : 2
Формат : AC-3
Формат/Информация : Audio Coding 3
Расширение режима : CM (complete main)
Параметр Endianness формата : Big
Идентификатор кодека : A_AC3
Продолжительность : 2 ч. 2 м.
Вид битрейта : Постоянный
Битрейт : 448 Кбит/сек
Каналы : 6 каналов
Расположение каналов : Front: L C R, Side: L R, LFE
Частота : 48,0 КГц
Битовая глубина : 16 бит
Метод сжатия : С потерями
Размер потока : 392 Мбайт (11%)
Язык : Russian
Default : Да
Forced : Нет


Релиз от:



   Похожие торренты   Торрент   Размер 
В этой теме нет новых непрочитанных сообщений. Девушка и смерть / Het Meisje en de Dood (2012) HDTVRip 1080p от MediaClub

28 | 9

5.21 ГБ

В этой теме нет новых непрочитанных сообщений. Девушка и смерть / Het Meisje en de Dood (2012) HDTV 1080i от MediaClub

14 | 3

4.49 ГБ

В этой теме нет новых непрочитанных сообщений. Девушка и смерть / Het Meisje en de Dood / The Girl and Death (2012) DVD5 | Sub

0 | 2

4.25 ГБ

В этой теме нет новых непрочитанных сообщений. Девушка и смерть / Het Meisje en de Dood / The Girl and Death (2012) DVDRip | Sub

9 | 3

1.46 ГБ

В этой теме нет новых непрочитанных сообщений. Девушка и смерть / Het Meisje en de Dood / The Girl and Death (2012) DVDRip-AVC от New-Team | лицензия

9 | 5

2.18 ГБ

В этой теме нет новых непрочитанных сообщений. Девушка и смерть / Het Meisje en de Dood / The Girl and Death (2012) DVD5 от New-Team | сжатый

2 | 3

4.37 ГБ

В этой теме нет новых непрочитанных сообщений. Девушка и смерть / Het Meisje en de Dood / The Girl and Death (2012) DVDRip от New-Team | лицензия

33 | 3

2.18 ГБ




Вы не можете начинать темы
Вы не можете отвечать на сообщения
Вы не можете редактировать свои сообщения
Вы не можете удалять свои сообщения
Вы не можете добавлять вложения

Перейти:  
Для Мосгорсуда, Роскомнадзора и рекламодателей: mosgorsud-torrent[собачка]yandex.ru
 Вход
ppkBB3cker v.2 © 2008-2014 @ PPK
[ Time : 0.064s | 15 Queries | GZIP : Off ]

Торрент трекер RUTOR.IN, Не можете зайти на rutor.org? Какой новый адрес рутор? Какое зеркало рутор? Не работает rutor.org и зеркала? Тогда наш торрент специально для вас. Rutor.in неофициальное зеркало rutor. В случае если у Вас заблокирован rutor или вдруг Вы не можете на него зайти, то Вы без труда сможете скачать бесплатно и без рекламы последние новинки кино, игр, сериалов и прочего у нас, на Rutor.in. Не нужно использовать прокси, чтобы зайти на рутор, достаточно воспользоваться нашим ресурсом. Все новые фильмы, игры, сериалы, книги и музыка за 2013 и 2014 годы через торрент бесплатно. Скачивайте фильмы в хорошем качестве, игры для пк, xbox, playstation без регистрации. У нас вы найдете новые Зарубежные сериалы и Русские сериалы 2013, 2014, 2015 годов. Оставайтесь с нами, качайте любимые фильмы, игры, сериалы, книги и музыку.