img image001 image001 image001 image001 image001 image001 image001 image001 image001 image001 image001 image001 image001 image001 image001

Planets Sun Sun Sun
Статистика раздачи
Автор: Nickolas3434 | Размер: 14.48 ГБ | Добавлен: 08 окт 2014
Раздают: 39    Качают: 22
Скачать торрент
Скачать торрент
Описание торрента

СообщениеДобавлено: 08 окт 2014 


Название: Адмиралъ
Оригинальное название: Адмиралъ
Год выпуска: 2008
Страна: Россия
Жанр: драма, история
Продолжительность: 02:04:02
Перевод: Оригинальный
Субтитры: русские (Полные), английские (Полные)

Режиссер: Андрей Кравчук

В ролях: Константин Хабенский (Александр Васильевич Колчак), Елизавета Боярская (Анна Васильевна Тимирёва), Сергей Безруков (Владимир Оскарович Каппель), Анна Ковальчук (Софья Федоровна Колчак), Владислав Ветров (Сергей Николаевич Тимерев), Егор Бероев (контр-адмирал Смирнов, друг Колчака), Ришар Боренже (генерал Жанен), Николай Бурляев (Николай 2), Виктор Вержбицкий (Керенский), Фёдор Бондарчук (режиссер Сергей Бондарчук), Александр Лазарев мл. (Лебедев), Игорь Савочкин (генерал-лейтенант Войцеховский)


Описание:
Фильм, рассказывающий о жизни и любви выдающегося боевого офицера военно-морского флота, полярного исследователя, а затем ставшего адмиралом, верховного правителя России - Александра Васильевича Колчака и Анны Тимиревой. События разворачиваются в период 1916-1920 годов на фоне крушения Российской империи, двух революций и Гражданской войны.


Рейтинг

imdb.com: 6.90 (4900)


Автор рипа:Tiberiumsun69



Качество: BDRip 1080p / 60 FPS
Формат: MKV
Видео кодек: AVC
Аудио кодек:AC3, DTS-HD
Видео: AVC, 1920x808 (2.40:1), 14169 kbps, 59,940 fps, 0,152 bpp
Аудио №1: русский / AC3 / 5.1 / 48 kHz / 640 kbps / 16 bit |Оригинал|
Аудио №2: русский / DTS-HD / 48 kHz / 1572 kbps / 16 bit |Оригинал|
Навигация по главам: есть




Перед скачиванием обязательно проверьте сэмпл на своем оборудовании.

Raven за помощ при создании релиза и обложки

General
Unique ID : 193318406826508256215949157634566923687 (0x916FC5567B0E8198BD530BA4BD3225A7)
Complete name : A:1080p 60fpsАдмиралъ 1080p 60fps.mkv
Format : Matroska
Format version : Version 4 / Version 2
File size : 14.5 GiB
Duration : 2h 4mn
Overall bit rate mode : Variable
Overall bit rate : 16.7 Mbps
Encoded date : UTC 2014-09-21 11:36:50
Writing application : mkvmerge v6.9.1 ('Blue Panther') 64bit built on Apr 18 2014 18:23:38
Writing library : libebml v1.3.0 + libmatroska v1.4.1
Video
ID : 1
Format : AVC
Format/Info : Advanced Video Codec
Format profile : High@L4.1
Format settings, CABAC : Yes
Format settings, ReFrames : 4 frames
Codec ID : V_MPEG4/ISO/AVC
Duration : 2h 4mn
Bit rate : 14.2 Mbps
Width : 1 920 pixels
Height : 808 pixels
Display aspect ratio : 2.40:1
Frame rate : 59.940 fps
Color space : YUV
Chroma subsampling : 4:2:0
Bit depth : 8 bits
Scan type : Progressive
Bits/(Pixel*Frame) : 0.152
Stream size : 12.3 GiB (85%)
Writing library : x264 core 133 r2334 a3ac64b
Encoding settings : cabac=1 / ref=4 / deblock=1:-1:-1 / analyse=0x3:0 / me=umh / subme=9 / psy=1 / psy_rd=1.00:0.10 / mixed_ref=1 / me_range=42 / chroma_me=0 / trellis=2 / 8x8dct=1 / cqm=0 / deadzone=21,11 / fast_pskip=0 / chroma_qp_offset=-3 / threads=12 / lookahead_threads=1 / sliced_threads=0 / nr=0 / decimate=0 / interlaced=0 / bluray_compat=0 / constrained_intra=0 / bframes=5 / b_pyramid=2 / b_adapt=2 / b_bias=0 / direct=1 / weightb=1 / open_gop=0 / weightp=2 / keyint=594 / keyint_min=59 / scenecut=40 / intra_refresh=0 / rc=crf / mbtree=0 / crf=15.0 / qcomp=0.60 / qpmin=0 / qpmax=69 / qpstep=4 / ip_ratio=1.40 / pb_ratio=1.30 / aq=0
Language : English
Default : Yes
Forced : No
Audio #1
ID : 2
Format : AC-3
Format/Info : Audio Coding 3
Mode extension : CM (complete main)
Codec ID : A_AC3
Duration : 2h 4mn
Bit rate mode : Constant
Bit rate : 640 Kbps
Channel(s) : 6 channels
Channel positions : Front: L C R, Side: L R, LFE
Sampling rate : 48.0 KHz
Bit depth : 16 bits
Compression mode : Lossy
Stream size : 568 MiB (4%)
Title : Дубляж
Language : Russian
Default : Yes
Forced : No
Audio #2
ID : 3
Format : DTS
Format/Info : Digital Theater Systems
Format profile : MA / Core
Codec ID : A_DTS
Duration : 2h 4mn
Bit rate mode : Variable
Bit rate : 1 573 Kbps / 1 510 Kbps
Channel(s) : 8 channels / 6 channels
Channel positions : Front: L C R, Side: L R, Back: L R, LFE / Front: L C R, Side: L R, LFE
Sampling rate : 48.0 KHz
Bit depth : 16 bits
Compression mode : Lossless / Lossy
Title : Дубляж
Language : Russian
Default : No
Forced : No
Text #1
ID : 4
Format : UTF-8
Codec ID : S_TEXT/UTF8
Codec ID/Info : UTF-8 Plain Text
Title : Полные
Language : Russian
Default : No
Forced : No
Text #2
ID : 5
Format : UTF-8
Codec ID : S_TEXT/UTF8
Codec ID/Info : UTF-8 Plain Text
Title : Полные
Language : English
Default : No
Forced : No
Menu
00:00:00.000 : en:00:00:00.000
00:01:33.176 : en:00:01:33.176
00:09:25.565 : en:00:09:25.565
00:13:54.416 : en:00:13:54.416
00:17:14.742 : en:00:17:14.742
00:26:57.240 : en:00:26:57.240
00:32:06.507 : en:00:32:06.507
00:42:39.056 : en:00:42:39.056
00:49:22.292 : en:00:49:22.292
00:56:44.067 : en:00:56:44.067
01:01:24.555 : en:01:01:24.555
01:10:44.031 : en:01:10:44.031
01:20:13.183 : en:01:20:13.183
01:27:02.508 : en:01:27:02.508
01:36:26.155 : en:01:36:26.155
01:40:39.074 : en:01:40:39.074
01:50:20.989 : en:01:50:20.989
01:59:02.510 : en:01:59:02.510


Просьба к переливающим на другие сайты, в оформлении указывайте пожалуйста авторство рипа - Tiberiumsun69




   Похожие торренты   Торрент   Размер 
В этой теме нет новых непрочитанных сообщений. Адмиралъ (2008) BDRip 1080p от FreeHD

7 | 7

11.99 ГБ

В этой теме нет новых непрочитанных сообщений. Адмиралъ / Admiral (2008) BDRip 1080p от Neofilm

83 | 8

4.37 ГБ

В этой теме нет новых непрочитанных сообщений. Адмиралъ [01-10 из 10] (2008) BDRip-AVC

234 | 114

14.09 ГБ

В этой теме нет новых непрочитанных сообщений. Адмиралъ (2008) BDRip 720p

1016 | 30

4.37 ГБ

В этой теме нет новых непрочитанных сообщений. Адмиралъ [01-10 из 10] (2008) BDRip 720p | Телеверсия

200 | 28

29.99 ГБ

В этой теме нет новых непрочитанных сообщений. Адмиралъ (2008) BDRip 720p от FreeHD

1 | 2

6.54 ГБ

В этой теме нет новых непрочитанных сообщений. Адмирал / АдмиралЪ (2008) BDRip от HQCLUB

626 | 54

2.18 ГБ




Вы не можете начинать темы
Вы не можете отвечать на сообщения
Вы не можете редактировать свои сообщения
Вы не можете удалять свои сообщения
Вы не можете добавлять вложения

Перейти:  
Для Мосгорсуда, Роскомнадзора и рекламодателей: mosgorsud-torrent[собачка]yandex.ru
 Вход
ppkBB3cker v.2 © 2008-2014 @ PPK
[ Time : 0.017s | 15 Queries | GZIP : On ]

Торрент трекер RUTOR.IN, Не можете зайти на rutor.org? Какой новый адрес рутор? Какое зеркало рутор? Не работает rutor.org и зеркала? Тогда наш торрент специально для вас. Rutor.in неофициальное зеркало rutor. В случае если у Вас заблокирован rutor или вдруг Вы не можете на него зайти, то Вы без труда сможете скачать бесплатно и без рекламы последние новинки кино, игр, сериалов и прочего у нас, на Rutor.in. Не нужно использовать прокси, чтобы зайти на рутор, достаточно воспользоваться нашим ресурсом. Все новые фильмы, игры, сериалы, книги и музыка за 2013 и 2014 годы через торрент бесплатно. Скачивайте фильмы в хорошем качестве, игры для пк, xbox, playstation без регистрации. У нас вы найдете новые Зарубежные сериалы и Русские сериалы 2013, 2014, 2015 годов. Оставайтесь с нами, качайте любимые фильмы, игры, сериалы, книги и музыку.