img image001 image001 image001 image001 image001 image001 image001 image001 image001 image001 image001 image001 image001 image001 image001

Planets Sun Sun Sun
Статистика раздачи
Автор: Nickolas3434 | Размер: 2.19 ГБ | Добавлен: 08 окт 2014
Раздают: 13    Качают: 5
Скачать торрент
Скачать торрент
Описание торрента

СообщениеДобавлено: 08 окт 2014 

Страна: СССР
Производство: Ленфильм
Жанр: мюзикл, комедия
Год выпуска: 1979
Продолжительность: 02:12:26 (01:06:24 + 01:06:02)
Перевод: не требуется
Оригинальная аудиодорожка: русский
Cубтитры: нет
Режиссер: Наум Бирман
В ролях:
Андрей Миронов, Михаил Державин, Александр Ширвиндт, Лариса Голубкина, Алина Покровская, Ирина Мазуркевич, Зиновий Гердт, Изиль Заблудовский, Виктор Ильичёв, Кира Крейлис-Петрова, Анна Лисянская, Владимир Ляховицкий, Игорь Окрепилов, Татьяна Пельтцер, Юрий Катин-Ярцев, Григорий Шпигель, Николай Боярский, Ольга Волкова, Михаил Девяткин, Георгий Штиль, Лев Лемке, Ирина Смирнова (Гойер), Анатолий Рудаков, Вера Улик, Файме Юрно, Мария Белкина, Анатолий Попов, Борис Бирман, Роберт Городецкий...
Описание:
По одноименной повести Джерома К. Джерома. Однажды трое приятелей-холостяков, лондонских жителей, решили сделаться ближе к природе и отправиться в лодочное путешествие по Темзе, прихватив с собой собачку Монморенси…






Исходник: BDRemux 1080p
Тип релиза: BDRip
Контейнер: AVI
Видео: 720x544 (1,378:1), 25 fps, XviD ~ 1904 kbps avg, 0.203 bit/pixel
Аудио: 48 kHz, Dolby AC3 5.1, 448 kbps
Раздача от:
Общее
Полное имя : Troye.v.lodke,ne.schitaya.sobaki.1979.BDRip_[New-team]_by_AVP_Studio.avi
Формат : AVI
Формат/Информация : Audio Video Interleave
Профиль формата : OpenDML
Размер файла : 2,19 Гбайт
Продолжительность : 2 ч. 12 м.
Общий поток : 2364 Кбит/сек
Программа кодирования : VirtualDubModRus 1.5.10.2 (build 2542/release)
Библиотека кодирования : VirtualDubMod build 2542/release
Видео
Идентификатор : 0
Формат : MPEG-4 Visual
Профиль формата : Advanced Simple@L5
Параметр BVOP формата : 1
Параметр QPel формата : Нет
Параметр GMC формата : Без точки перехода
Параметр матрицы формата : Выборочная
Идентификатор кодека : XVID
Идентификатор кодека/Подсказка : XviD
Продолжительность : 2 ч. 12 м.
Битрейт : 1904 Кбит/сек
Ширина : 720 пикселей
Высота : 544 пикселя
Соотношение сторон : 1,378
Частота кадров : 23,976 кадра/сек
Цветовое пространство : YUV
Субдискретизация насыщенности : 4:2:0
Битовая глубина : 8 бит
Тип развёртки : Прогрессивная
Метод сжатия : С потерями
Бит/(Пиксели*Кадры) : 0.203
Размер потока : 1,76 Гбайт (81%)
Библиотека кодирования : XviD 73
Аудио
Идентификатор : 1
Формат : AC-3
Формат/Информация : Audio Coding 3
Расширение режима : CM (complete main)
Параметр Endianness формата : Big
Идентификатор кодека : 2000
Продолжительность : 2 ч. 12 м.
Вид битрейта : Постоянный
Битрейт : 448 Кбит/сек
Каналы : 6 каналов
Расположение каналов : Front: L C R, Side: L R, LFE
Частота : 48,0 КГц
Битовая глубина : 16 бит
Метод сжатия : С потерями
Размер потока : 424 Мбайт (19%)
Выравнивание : Разделение по промежуткам
Продолжительность промежутка : 42 мс. (1,00 видеокадр)
Время предзагрузки промежутка : 500 мс





   Похожие торренты   Торрент   Размер 
В этой теме нет новых непрочитанных сообщений. Трое в лодке, не считая собаки (1979) BDRip от New-Team

133 | 11

1.34 ГБ

В этой теме нет новых непрочитанных сообщений. Трое в лодке, не считая собаки (1979) BDRip-AVC от New-Team

68 | 6

2.19 ГБ

В этой теме нет новых непрочитанных сообщений. Трое в лодке, не считая собаки (1979) BDRip 720p от New-Team

81 | 7

2.91 ГБ

В этой теме нет новых непрочитанных сообщений. Трое в лодке, не считая собаки (1979) BDRip-AVC от MediaClub

15 | 3

3.01 ГБ

В этой теме нет новых непрочитанных сообщений. Трое в лодке, не считая собаки (1979) BDRip от HQCLUB

90 | 5

2.17 ГБ

В этой теме нет новых непрочитанных сообщений. Трое в лодке, не считая собаки (1979) BDRip от MediaClub

3 | 2

2.18 ГБ

В этой теме нет новых непрочитанных сообщений. Трое в лодке, не считая собаки (1979) BDRip 1080p от HDClub

8 | 3

11.27 ГБ




Вы не можете начинать темы
Вы не можете отвечать на сообщения
Вы не можете редактировать свои сообщения
Вы не можете удалять свои сообщения
Вы не можете добавлять вложения

Перейти:  
Для Мосгорсуда, Роскомнадзора и рекламодателей: mosgorsud-torrent[собачка]yandex.ru
 Вход
ppkBB3cker v.2 © 2008-2014 @ PPK
[ Time : 3.413s | 15 Queries | GZIP : Off ]

Торрент трекер RUTOR.IN, Не можете зайти на rutor.org? Какой новый адрес рутор? Какое зеркало рутор? Не работает rutor.org и зеркала? Тогда наш торрент специально для вас. Rutor.in неофициальное зеркало rutor. В случае если у Вас заблокирован rutor или вдруг Вы не можете на него зайти, то Вы без труда сможете скачать бесплатно и без рекламы последние новинки кино, игр, сериалов и прочего у нас, на Rutor.in. Не нужно использовать прокси, чтобы зайти на рутор, достаточно воспользоваться нашим ресурсом. Все новые фильмы, игры, сериалы, книги и музыка за 2013 и 2014 годы через торрент бесплатно. Скачивайте фильмы в хорошем качестве, игры для пк, xbox, playstation без регистрации. У нас вы найдете новые Зарубежные сериалы и Русские сериалы 2013, 2014, 2015 годов. Оставайтесь с нами, качайте любимые фильмы, игры, сериалы, книги и музыку.