img image001 image001 image001 image001 image001 image001 image001 image001 image001 image001 image001 image001 image001 image001 image001

Planets Sun Sun Sun
Статистика раздачи
Автор: Nickolas3434 | Размер: 1.45 ГБ | Добавлен: 08 окт 2014
Раздают: 241    Качают: 30
Скачать торрент
Скачать торрент
Описание торрента

СообщениеДобавлено: 08 окт 2014 

Информация о фильме
Название: Весёлые ребята;)
Год выхода: 2014
Жанр: комедия
Режиссер: Алексей Бобров
В ролях: Иван Дорн, Катерина Шпица, София Каштанова, Алексей Шевченков, Евгений Тихомиров, Ола Кейру, Сергей Газаров, Татьяна Лютаева, Алена Новицкая, Наталья Щукина
О фильме:
Начинающий музыкант Костя Потехин, чтобы завоевать расположение красивой девушки, соглашается участвовать в музыкальном телевизионном конкурсе. Но участвовать нужно только со своей музыкальной группой, которой у него нет. За несколько дней ему предстоит собрать свою группу, найти надежных друзей и встретить настоящую любовь.

Страна: Россия
Студия: Фонд кино, Продюсерская компания Валерия Тодоровского
Продолжительность: 01:28:28
Перевод: Оригинальное
Файл
Кодек: х264
Качество: DVDRip-AVC
Видео: 720x300 (2,40:1), 25,000 fps, x264 ~ 1904 kbps avg, 0.353 bit/pixel
Аудио: 48,0 kHz, AC3, 6 ch, ~448 kbps avg


Общее
Уникальный идентификатор : 182454082817812455425082701189310305641 (0x894360CEED46F2D59122FD7A4ABBD569)
Полное имя : D:ВидеоВесёлые ребята;) 2014. DVDRip-AVC by Vovan1979 WazZzuP & ExKinoRay .mkv
Формат : Matroska
Версия формата : Version 4 / Version 2
Размер файла : 1,45 Гбайт
Продолжительность : 1 ч. 28 м.
Общий поток : 2353 Кбит/сек
Название фильма : Весёлые ребята;). 2014. DVDRip-AVC by Vovan1979 WazZzuP & ExKinoRay
Дата кодирования : UTC 2014-10-06 12:28:20
Программа кодирования : mkvmerge v7.1.0 ('Good Love') 64bit built on Jul 27 2014 13:06:55
Библиотека кодирования : libebml v1.3.0 + libmatroska v1.4.1
DURATION : 01:28:28.800000000
NUMBER_OF_FRAMES : 165900
NUMBER_OF_BYTES : 297292800
_STATISTICS_WRITING_APP : mkvmerge v7.1.0 ('Good Love') 64bit built on Jul 27 2014 13:06:55
_STATISTICS_WRITING_DATE_UTC : 2014-10-06 12:28:20
_STATISTICS_TAGS : BPS DURATION NUMBER_OF_FRAMES NUMBER_OF_BYTES
Видео
Идентификатор : 1
Формат : AVC
Формат/Информация : Advanced Video Codec
Профиль формата : High@L3.2
Параметр CABAC формата : Да
Параметр ReFrames формата : 9 кадров
Идентификатор кодека : V_MPEG4/ISO/AVC
Продолжительность : 1 ч. 28 м.
Битрейт : 1904 Кбит/сек
Ширина : 720 пикселей
Высота : 300 пикселей
Соотношение сторон : 2,40:1
Режим частоты кадров : Постоянный
Частота кадров : 25,000 кадров/сек
Цветовое пространство : YUV
Субдискретизация насыщенности : 4:2:0
Битовая глубина : 8 бит
Тип развёртки : Прогрессивная
Бит/(Пиксели*Кадры) : 0.353
Размер потока : 1,15 Гбайт (79%)
Заголовок : by Vovan1979 WazZzuP & ExKinoRay
Библиотека кодирования : x264 core 130 r2273 b3065e6
Настройки программы : cabac=1 / ref=9 / deblock=1:-3:-3 / analyse=0x3:0x113 / me=umh / subme=9 / psy=1 / psy_rd=1.00:0.10 / mixed_ref=1 / me_range=32 / chroma_me=1 / trellis=2 / 8x8dct=1 / cqm=0 / deadzone=21,11 / fast_pskip=1 / chroma_qp_offset=-3 / threads=6 / lookahead_threads=1 / sliced_threads=0 / nr=0 / decimate=0 / interlaced=0 / bluray_compat=0 / constrained_intra=0 / bframes=8 / b_pyramid=2 / b_adapt=2 / b_bias=0 / direct=3 / weightb=1 / open_gop=0 / weightp=2 / keyint=250 / keyint_min=25 / scenecut=40 / intra_refresh=0 / rc_lookahead=40 / rc=2pass / mbtree=1 / bitrate=1904 / ratetol=1.0 / qcomp=0.60 / qpmin=0 / qpmax=69 / qpstep=4 / cplxblur=20.0 / qblur=0.5 / ip_ratio=1.40 / aq=1:1.00
Default : Да
Forced : Нет
Аудио
Идентификатор : 2
Формат : AC-3
Формат/Информация : Audio Coding 3
Расширение режима : CM (complete main)
Параметр Endianness формата : Big
Идентификатор кодека : A_AC3
Продолжительность : 1 ч. 28 м.
Вид битрейта : Постоянный
Битрейт : 448 Кбит/сек
Каналы : 6 каналов
Расположение каналов : Front: L C R, Side: L R, LFE
Частота : 48,0 КГц
Битовая глубина : 16 бит
Метод сжатия : С потерями
Размер потока : 284 Мбайт (19%)
Заголовок : Лицензия
Язык : Russian
Default : Да
Forced : Нет

Релиз от:



   Похожие торренты   Торрент   Размер 
В этой теме нет новых непрочитанных сообщений. Весёлые ребята;) (2014) DVDRip от ExKinoRay | Лицензия

148 | 7

741.37 МБ

В этой теме нет новых непрочитанных сообщений. Весёлые ребята;) (2014) DVDRip от New-Team | Лицензия

201 | 17

742.72 МБ

В этой теме нет новых непрочитанных сообщений. Весёлые ребята;) (2014) DVDRip от New-Team | Лицензия

426 | 19

1.45 ГБ

В этой теме нет новых непрочитанных сообщений. Весёлые ребята;) (2014) WEB-DLRip-AVC от ExKinoRay | iTunes

308 | 4

743.63 МБ

В этой теме нет новых непрочитанных сообщений. Весёлые ребята;) (2014) DVD5 от New-Team | Лицензия

103 | 16

4.12 ГБ

В этой теме нет новых непрочитанных сообщений. Веселые Ребята - Напиши Мне Письмо (2012) MP3 от BestSound ExKinoRay

5 | 2

146.41 МБ

В этой теме нет новых непрочитанных сообщений. ВИА Весёлые ребята - Ретроспектива (2014) MP3

140 | 13

191.36 МБ




Вы не можете начинать темы
Вы не можете отвечать на сообщения
Вы не можете редактировать свои сообщения
Вы не можете удалять свои сообщения
Вы не можете добавлять вложения

Перейти:  
Для Мосгорсуда, Роскомнадзора и рекламодателей: mosgorsud-torrent[собачка]yandex.ru
 Вход
ppkBB3cker v.2 © 2008-2014 @ PPK
[ Time : 0.041s | 16 Queries | GZIP : Off ]

cron