img image001 image001 image001 image001 image001 image001 image001 image001 image001 image001 image001 image001 image001 image001 image001

Planets Sun Sun Sun
Статистика раздачи
Автор: Nickolas3434 | Размер: 2.91 ГБ | Добавлен: 08 окт 2014
Раздают: 81    Качают: 7
Скачать торрент
Скачать торрент
Описание торрента

СообщениеДобавлено: 08 окт 2014 

Страна: СССР
Производство: Ленфильм
Жанр: мюзикл, комедия
Год выпуска: 1979
Продолжительность: 02:12:26 (01:06:24 + 01:06:02)
Перевод: не требуется
Оригинальная аудиодорожка: русский
Cубтитры: нет
Режиссер: Наум Бирман
В ролях:
Андрей Миронов, Михаил Державин, Александр Ширвиндт, Лариса Голубкина, Алина Покровская, Ирина Мазуркевич, Зиновий Гердт, Изиль Заблудовский, Виктор Ильичёв, Кира Крейлис-Петрова, Анна Лисянская, Владимир Ляховицкий, Игорь Окрепилов, Татьяна Пельтцер, Юрий Катин-Ярцев, Григорий Шпигель, Николай Боярский, Ольга Волкова, Михаил Девяткин, Георгий Штиль, Лев Лемке, Ирина Смирнова (Гойер), Анатолий Рудаков, Вера Улик, Файме Юрно, Мария Белкина, Анатолий Попов, Борис Бирман, Роберт Городецкий...
Описание:
По одноименной повести Джерома К. Джерома. Однажды трое приятелей-холостяков, лондонских жителей, решили сделаться ближе к природе и отправиться в лодочное путешествие по Темзе, прихватив с собой собачку Монморенси…







Исходник: BDRemux 1080p
Тип релиза: BDRip 720p
Контейнер: MKV
Видео: 992x720 (1,378:1), 25 fps, H264 ~ 2694 kbps avg, 0.157 bit/pixel
Аудио: 48 kHz, Dolby AC3 5.1, 448 kbps
Раздача от:
Общее
Полное имя : Troye.v.lodke,ne.schitaya.sobaki.1979.BDRip720p_[New-team]_by_AVP_Studio.mkv
Формат : Matroska
Версия формата : Version 4 / Version 2
Размер файла : 2,91 Гбайт
Продолжительность : 2 ч. 12 м.
Общий поток : 3144 Кбит/сек
Название фильма : Troye.v.lodke,ne.schitaya.sobaki.1979.BDRip720p_[New-team]_by_AVP_Studio
Дата кодирования : UTC 2014-10-06 20:42:12
Программа кодирования : mkvmerge v7.2.0 ('On Every Street') 64bit built on Sep 13 2014 15:52:10
Библиотека кодирования : libebml v1.3.0 + libmatroska v1.4.1
_STATISTICS_WRITING_APP : mkvmerge v7.2.0 ('On Every Street') 64bit built on Sep 13 2014 15:52:10
_STATISTICS_WRITING_DATE_UTC : 2014-10-06 20:42:12
_STATISTICS_TAGS : BPS DURATION NUMBER_OF_FRAMES NUMBER_OF_BYTES
DURATION : 02:12:26.944000000
NUMBER_OF_FRAMES : 248342
NUMBER_OF_BYTES : 445028864
Видео
Идентификатор : 1
Формат : AVC
Формат/Информация : Advanced Video Codec
Профиль формата : High@L4.1
Параметр CABAC формата : Да
Параметр ReFrames формата : 8 кадров
Идентификатор кодека : V_MPEG4/ISO/AVC
Продолжительность : 2 ч. 12 м.
Битрейт : 2694 Кбит/сек
Ширина : 992 пикселя
Высота : 720 пикселей
Соотношение сторон : 1,378
Режим частоты кадров : Постоянный
Частота кадров : 23,976 кадра/сек
Цветовое пространство : YUV
Субдискретизация насыщенности : 4:2:0
Битовая глубина : 8 бит
Тип развёртки : Прогрессивная
Бит/(Пиксели*Кадры) : 0.157
Размер потока : 2,44 Гбайт (84%)
Заголовок : Источник BDRemux
Библиотека кодирования : x264 core 138 r2356 a1d3d17
Настройки программы : cabac=1 / ref=8 / deblock=1:-3:-2 / analyse=0x3:0x113 / me=umh / subme=10 / psy=1 / psy_rd=1.00:0.05 / mixed_ref=1 / me_range=32 / chroma_me=1 / trellis=2 / 8x8dct=1 / cqm=0 / deadzone=21,11 / fast_pskip=0 / chroma_qp_offset=-3 / threads=6 / lookahead_threads=1 / sliced_threads=0 / nr=0 / decimate=0 / interlaced=0 / bluray_compat=0 / constrained_intra=0 / bframes=8 / b_pyramid=2 / b_adapt=2 / b_bias=0 / direct=3 / weightb=1 / open_gop=0 / weightp=2 / keyint=240 / keyint_min=24 / scenecut=40 / intra_refresh=0 / rc_lookahead=40 / rc=2pass / mbtree=1 / bitrate=2694 / ratetol=1.0 / qcomp=0.60 / qpmin=0 / qpmax=69 / qpstep=4 / cplxblur=20.0 / qblur=0.5 / ip_ratio=1.40 / aq=1:1.00
Язык : Russian
Default : Да
Forced : Нет
Аудио
Идентификатор : 2
Формат : AC-3
Формат/Информация : Audio Coding 3
Расширение режима : CM (complete main)
Параметр Endianness формата : Big
Идентификатор кодека : A_AC3
Продолжительность : 2 ч. 12 м.
Вид битрейта : Постоянный
Битрейт : 448 Кбит/сек
Каналы : 6 каналов
Расположение каналов : Front: L C R, Side: L R, LFE
Частота : 48,0 КГц
Битовая глубина : 16 бит
Метод сжатия : С потерями
Размер потока : 424 Мбайт (14%)
Заголовок : Источник BDRemux
Язык : Russian
Default : Да
Forced : Нет
Меню
00:00:00.000 : en:Первая серия
00:04:26.432 : en:Однажды вечером
00:14:42.172 : en:Три безнадежно больных человека
00:20:37.527 : en:Итак, в путь!
00:23:43.338 : en:Первый день пути. Первые радости. 10 часов 8 минут по Гринвичу
00:29:38.693 : en:Второй день пути. Кораблекрушение. 8 часов 6 минут по Гринвичу
00:36:50.666 : en:Как Харрис поет комические куплеты!
00:43:44.121 : en:Третий день пути. Джордж готовит вкусный ленч (второй завтрак). 13 часов 3 минуты по Гринвичу
00:45:27.766 : en:Как дядюшка Поджер вешал картину!
00:50:50.964 : en:Четвертый день пути. Таинственное исчезновение. 8 часов утра по Гринвичу
00:56:51.241 : en:Пятый день пути. Едем исключительно в мужской компании
01:06:24.272 : en:Вторая серия
01:13:11.971 : en:Шестой день пути. Сон на воде. 3 часа 12 минут по Гринвичу
01:22:36.701 : en:Тот же день. "Роман" утонул. 2 часа дня по Гринвичу
01:37:32.471 : en:Седьмой день пути. Ирландское рагу
01:45:29.823 : en:7 часов утра по Гринвичу
02:04:02.309 : en:Трое после активного отдыха





   Похожие торренты   Торрент   Размер 
В этой теме нет новых непрочитанных сообщений. Трое в лодке, не считая собаки (1979) BDRip-AVC от New-Team

68 | 6

2.19 ГБ

В этой теме нет новых непрочитанных сообщений. Трое в лодке, не считая собаки (1979) BDRip от New-Team

13 | 5

2.19 ГБ

В этой теме нет новых непрочитанных сообщений. Трое в лодке, не считая собаки (1979) BDRip от New-Team

133 | 11

1.34 ГБ

В этой теме нет новых непрочитанных сообщений. Трое в лодке, не считая собаки (1979) BDRip 720p от MediaClub

15 | 5

5.57 ГБ

В этой теме нет новых непрочитанных сообщений. Трое в лодке, не считая собаки (1979) BDRip-AVC от MediaClub

15 | 3

3.01 ГБ

В этой теме нет новых непрочитанных сообщений. Трое в лодке, не считая собаки (1979) BDRip от HQCLUB

90 | 5

2.17 ГБ

В этой теме нет новых непрочитанных сообщений. Трое в лодке, не считая собаки (1979) BDRip от MediaClub

3 | 2

2.18 ГБ




Вы не можете начинать темы
Вы не можете отвечать на сообщения
Вы не можете редактировать свои сообщения
Вы не можете удалять свои сообщения
Вы не можете добавлять вложения

Перейти:  
Для Мосгорсуда, Роскомнадзора и рекламодателей: mosgorsud-torrent[собачка]yandex.ru
 Вход
ppkBB3cker v.2 © 2008-2014 @ PPK
[ Time : 0.082s | 16 Queries | GZIP : Off ]

Торрент трекер RUTOR.IN, Не можете зайти на rutor.org? Какой новый адрес рутор? Какое зеркало рутор? Не работает rutor.org и зеркала? Тогда наш торрент специально для вас. Rutor.in неофициальное зеркало rutor. В случае если у Вас заблокирован rutor или вдруг Вы не можете на него зайти, то Вы без труда сможете скачать бесплатно и без рекламы последние новинки кино, игр, сериалов и прочего у нас, на Rutor.in. Не нужно использовать прокси, чтобы зайти на рутор, достаточно воспользоваться нашим ресурсом. Все новые фильмы, игры, сериалы, книги и музыка за 2013 и 2014 годы через торрент бесплатно. Скачивайте фильмы в хорошем качестве, игры для пк, xbox, playstation без регистрации. У нас вы найдете новые Зарубежные сериалы и Русские сериалы 2013, 2014, 2015 годов. Оставайтесь с нами, качайте любимые фильмы, игры, сериалы, книги и музыку.